<?xml version="1.0" standalone="no"?>
<!DOCTYPE svg PUBLIC "-//W3C//DTD SVG 1.1//EN" "http://www.w3.org/Graphics/SVG/1.1/DTD/svg11.dtd">
<svg xmlns="http://www.w3.org/2000/svg">
<defs >
<font id="Muli" horiz-adv-x="565" ><font-face
    font-family="Muli"
    units-per-em="1000"
    panose-1="0 0 0 0 0 0 0 0 0 0"
    ascent="1005"
    descent="-250"
    alphabetic="0" />
<glyph unicode=" " horiz-adv-x="261" />
<glyph unicode="!" horiz-adv-x="231" d="M90 187L65 712H166L140 187H90ZM64 103H167V0H64V103Z" />
<glyph unicode="&quot;" horiz-adv-x="424" d="M85 432L63 712H159L139 432H85ZM287 432L265 712H361L341 432H287Z" />
<glyph unicode="#" horiz-adv-x="606" d="M314 0L453 712H517L378 0H314ZM35 184V243H551V184H35ZM89 0L228 712H292L153 0H89ZM55 477V536H571V477H55Z" />
<glyph unicode="$" horiz-adv-x="600" d="M302 -8Q226 -8 160 15T45 84L76 147Q129 102 182 82T301 62Q381 62 425 96T470 191Q470 228 448 250T389 285T308 309T220 333T139 367T80 424T58 515Q58 575 90 621T178 694T308 720Q353 720 396 710T478 679T545 630L514
567Q426 650 308 650Q231 650 187 615T142 518Q142 477 164 453T223 414T304 389T391 366T472 333T531 280T553 193Q553 133 521 88T433 18T302 -8ZM275 -116V6L278 46V673L275 707V828H345V707L342 673V46L345 6V-116H275Z" />
<glyph unicode="%" horiz-adv-x="843" d="M190 281Q117 281 75 335T32 499Q32 610 74 663T190 716Q263 716 305 663T347 499Q347 389 305 335T190 281ZM190 339Q232 339 252 377T273 499Q273 582 253 620T190 658Q148 658 128 620T107 499Q107 415 127 377T190
339ZM177 0L589 712H666L255 0H177ZM653 -4Q580 -4 538 50T495 214Q495 325 537 378T653 431Q726 431 768 378T810 214Q810 104 768 50T653 -4ZM653 54Q695 54 715 92T736 214Q736 297 716 335T653 373Q611 373 591 335T570 214Q570 130 590 92T653 54Z" />
<glyph unicode="&amp;" horiz-adv-x="670" d="M282 -7Q213 -7 162 16T82 81T53 179Q53 245 94 298T230 405Q295 443 331 470T382 521T397 572Q397 610 373 633T310 657Q266 657 239 632T212 564Q212 544 218 526T242 484T290 426L534 150Q561 120 597 94T680 47L636
-9Q586 14 548 42T483 100L224 391Q190 429 171 458T143 512T134 564Q134 611 156 645T217 699T309 719Q382 719 425 681T469 576Q469 536 451 503T390 435T273 356Q222 326 191 299T147 243T133 181Q133 125 174 92T284 59Q359 59 416 103T506 228T542 418H614Q611
322 586 244T516 110T413 24T282 -7Z" />
<glyph unicode="&apos;" horiz-adv-x="222" d="M85 432L63 712H159L139 432H85Z" />
<glyph unicode="(" horiz-adv-x="317" d="M218 -182Q177 -105 152 -31T116 116T104 266Q104 342 116 415T152 562T218 712H286Q249 624 228 548T197 403T188 266Q188 198 197 129T227 -17T285 -182H218Z" />
<glyph unicode=")" horiz-adv-x="317" d="M99 -182H32Q69 -94 90 -18T120 128T129 266Q129 333 120 402T90 548T32 712H100Q160 598 186 489T213 266Q213 190 202 117T165 -31T99 -182Z" />
<glyph unicode="*" horiz-adv-x="455" d="M138 362L88 398L185 522L33 567L53 626L200 573L195 729H257L252 572L401 626L420 567L269 522L366 398L315 362L227 493L138 362Z" />
<glyph unicode="+" horiz-adv-x="600" d="M546 319V256H54V319H546ZM269 534H331V41H269V534Z" />
<glyph unicode="," horiz-adv-x="231" d="M106 -115L68 -86Q95 -57 104 -33T113 16L137 0H64V103H167V30Q167 -10 154 -45T106 -115Z" />
<glyph unicode="-" horiz-adv-x="429" d="M73 235V302H356V235H73Z" />
<glyph unicode="." horiz-adv-x="231" d="M64 103H167V0H64V103Z" />
<glyph unicode="/" horiz-adv-x="285" d="M51 -55H-23L234 749H309L51 -55Z" />
<glyph unicode="0" horiz-adv-x="600" d="M300 -8Q178 -8 115 84T51 356Q51 535 114 627T300 720Q423 720 486 628T549 357Q549 178 486 85T300 -8ZM300 61Q385 61 425 133T466 357Q466 509 426 579T300 650Q215 650 175 579T134 357Q134 205 174 133T300 61Z" />
<glyph unicode="1" horiz-adv-x="600" d="M285 37V664L332 640L139 517V596L321 712H368V37H285ZM128 0V69H525V0H128Z" />
<glyph unicode="2" horiz-adv-x="600" d="M83 0V62L332 338Q382 394 405 439T428 529Q428 588 394 619T297 651Q245 651 195 631T95 569L64 632Q106 672 170 696T299 720Q364 720 411 698T485 633T511 533Q511 472 484 416T392 289L152 29L146 69H541V0H83Z" />
<glyph unicode="3" horiz-adv-x="600" d="M293 -7Q224 -7 161 16T53 81L85 144Q133 103 184 83T291 62Q367 62 406 96T446 196Q446 262 405 294T282 327H200V396H266Q345 396 387 431T429 531Q429 589 395 620T297 651Q244 651 194 631T95 569L64 632Q107 673
170 696T300 720Q364 720 412 698T485 634T511 537Q511 471 477 425T382 361L379 371Q451 356 489 310T527 193Q527 100 464 47T293 -7Z" />
<glyph unicode="4" horiz-adv-x="600" d="M377 0V609H402L106 182L107 223H567V155H49V217L392 712H459V0H377Z" />
<glyph unicode="5" horiz-adv-x="600" d="M311 -7Q246 -7 183 16T77 81L108 144Q157 104 207 83T311 62Q386 62 428 104T471 220Q471 267 452 302T399 358T317 378Q266 378 226 358T154 295H97V712H524V644H179V356L153 359Q182 401 227 424T330 447Q398 447 448
419T525 339T552 221Q552 154 523 103T439 22T311 -7Z" />
<glyph unicode="6" horiz-adv-x="600" d="M323 -8Q194 -8 124 81T54 338Q54 459 86 544T180 675T328 720Q390 720 448 698T551 632L520 569Q470 612 424 631T330 651Q238 651 187 570T136 339V253L124 280Q132 331 161 368T233 426T330 447Q396 447 446 419T524
339T552 221Q552 155 523 103T442 22T323 -8ZM319 61Q387 61 429 104T471 220Q471 291 429 334T318 378Q272 378 236 358T180 302T160 220Q160 172 180 137T236 81T319 61Z" />
<glyph unicode="7" horiz-adv-x="600" d="M201 0H113L462 676L469 643H65V712H535V651L201 0Z" />
<glyph unicode="8" horiz-adv-x="600" d="M300 -7Q222 -7 165 16T77 84T45 189Q45 263 95 312T229 373L224 358Q146 373 104 419T61 531Q61 589 91 631T175 697T300 720Q371 720 424 697T508 632T539 531Q539 465 497 419T377 358L371 373Q458 361 506 312T555
189Q555 128 524 84T435 17T300 -7ZM300 61Q384 61 429 95T474 194Q474 255 425 289T300 332Q224 324 175 290T126 194Q126 129 171 95T300 61ZM300 389Q370 397 413 432T457 525Q457 585 416 618T300 652Q226 652 185 619T143 525Q143 467 186 432T300 389Z" />
<glyph unicode="9" horiz-adv-x="600" d="M278 720Q407 720 477 631T547 374Q547 253 515 168T421 37T272 -8Q211 -8 153 14T49 80L81 143Q132 100 178 81T271 61Q363 61 413 142T464 373V459L477 433Q469 381 440 344T367 286T270 265Q205 265 155 293T77 373T49
491Q49 557 78 609T160 690T278 720ZM282 651Q213 651 172 608T130 492Q130 421 172 378T283 334Q329 334 365 354T421 410T441 492Q441 540 421 575T365 631T282 651Z" />
<glyph unicode=":" horiz-adv-x="231" d="M64 103H167V0H64V103ZM64 492H167V388H64V492Z" />
<glyph unicode=";" horiz-adv-x="231" d="M64 492H167V388H64V492ZM106 -115L68 -86Q95 -57 104 -33T113 16L137 0H64V103H167V30Q167 -10 154 -45T106 -115Z" />
<glyph unicode="&lt;" horiz-adv-x="600" d="M54 255V319L546 541V473L86 267V307L546 102V32L54 255Z" />
<glyph unicode="=" horiz-adv-x="600" d="M546 420V357H54V420H546ZM546 218V155H54V218H546Z" />
<glyph unicode="&gt;" horiz-adv-x="600" d="M546 255L54 32V102L514 307V267L54 473V541L546 319V255Z" />
<glyph unicode="?" horiz-adv-x="447" d="M88 683Q121 702 158 711T230 720Q288 720 331 700T399 645T423 562Q423 516 406 480T362 414T308 352T260 286T236 204L233 186H185V211Q185 263 200 302T239 372T285 431T323 490T339 557Q339 600 309 625T226 650Q193
650 158 640T88 608V683ZM158 0V103H261V0H158Z" />
<glyph unicode="@" horiz-adv-x="935" d="M478 -153Q346 -153 250 -99T102 51T50 276Q50 377 82 458T172 598T309 687T478 718Q580 718 656 686T784 601T860 482T886 347Q886 268 868 214T820 127T755 80T683 65Q628 65 598 88T564 155H562Q538 115 500 90T409
65Q344 65 303 110T261 241Q261 292 276 339T319 424T386 482T474 504Q522 504 557 481T603 422H604L616 492H682L634 218Q625 161 641 140T695 119Q713 119 735 130T777 168T809 238T822 347Q822 404 801 459T738 559T631 630T478 657Q401 657 335 631T220 556T143
436T115 276Q115 164 158 81T283 -47T478 -93Q565 -93 627 -68T721 0H809Q767 -70 682 -111T478 -153ZM423 119Q476 119 512 150T567 230T586 331Q586 389 558 418T482 448Q432 448 397 418T344 340T325 244Q325 182 354 151T423 119Z" />
<glyph unicode="A" horiz-adv-x="734" d="M103 0H18L331 712H403L716 0H632L353 652H383L103 0ZM151 183L180 251H554L583 183H151Z" />
<glyph unicode="B" horiz-adv-x="681" d="M88 0V712H374Q482 712 543 664T604 526Q604 464 571 422T478 361V369Q545 356 583 310T621 194Q621 100 559 50T384 0H88ZM169 68H377Q461 68 500 99T540 196Q540 261 500 294T377 327H169V68ZM169 396H361Q442 396 482
428T523 522Q523 583 483 613T361 644H169V396Z" />
<glyph unicode="C" horiz-adv-x="684" d="M392 -8Q290 -8 216 36T102 162T62 357Q62 470 102 551T216 676T392 720Q465 720 527 698T634 630L603 567Q552 611 502 630T393 649Q276 649 212 573T147 357Q147 216 211 140T393 63Q452 63 502 82T603 145L634 82Q589
37 527 15T392 -8Z" />
<glyph unicode="D" horiz-adv-x="746" d="M88 0V712H327Q441 712 521 671T643 550T685 357Q685 243 643 164T520 42T327 0H88ZM170 70H322Q460 70 529 142T599 357Q599 642 322 642H170V70Z" />
<glyph unicode="E" horiz-adv-x="588" d="M88 0V712H538V644H169V396H518V327H169V68H538V0H88Z" />
<glyph unicode="F" horiz-adv-x="563" d="M88 0V712H528V643H169V396H508V327H169V0H88Z" />
<glyph unicode="G" horiz-adv-x="731" d="M403 -8Q296 -8 220 35T103 160T62 357Q62 471 102 552T218 677T397 720Q471 720 533 698T642 630L610 567Q558 611 508 630T397 650Q276 650 212 575T147 357Q147 212 213 137T405 61Q457 61 506 70T596 96L576 54V306H399V371H651V41Q623
26 583 15T496 -2T403 -8Z" />
<glyph unicode="H" horiz-adv-x="766" d="M596 0V712H678V0H596ZM88 0V712H169V0H88ZM126 327V396H642V327H126Z" />
<glyph unicode="I" horiz-adv-x="258" d="M88 0V712H170V0H88Z" />
<glyph unicode="J" horiz-adv-x="329" d="M-5 -178V-107Q57 -118 93 -113T144 -78T159 11V712H241V10Q241 -73 217 -119T139 -179T-5 -178Z" />
<glyph unicode="K" horiz-adv-x="634" d="M537 0L145 362L520 712H625L223 337L227 390L644 0H537ZM88 0V712H170V0H88Z" />
<glyph unicode="L" horiz-adv-x="545" d="M88 0V712H170V70H527V0H88Z" />
<glyph unicode="M" horiz-adv-x="849" d="M88 0V712H156L445 55H407L693 712H761V0H685V604L716 600L454 0H396L130 600L163 604L164 0H88Z" />
<glyph unicode="N" horiz-adv-x="746" d="M88 0V712H151L605 107L581 101V712H659V0H595L142 604L165 611V0H88Z" />
<glyph unicode="O" horiz-adv-x="772" d="M386 -8Q286 -8 214 36T102 162T62 356Q62 469 101 550T212 676T386 720Q486 720 559 676T671 551T710 357Q710 244 671 162T559 36T386 -8ZM386 62Q499 62 562 138T625 357Q625 499 562 574T386 650Q273 650 210 574T146
357Q146 216 209 139T386 62Z" />
<glyph unicode="P" horiz-adv-x="651" d="M88 0V712H372Q482 712 543 659T605 513Q605 421 543 367T372 313H170V0H88ZM170 381H365Q444 381 484 415T524 513Q524 576 484 610T365 644H170V381Z" />
<glyph unicode="Q" horiz-adv-x="772" d="M578 -191Q535 -159 493 -108T420 -4L500 23Q526 -28 561 -67T635 -139L578 -191ZM386 -8Q286 -8 214 36T102 162T62 356Q62 469 101 550T212 676T386 720Q486 720 559 676T671 551T710 357Q710 244 671 162T559 36T386
-8ZM386 62Q499 62 562 138T625 357Q625 499 562 574T386 650Q273 650 210 574T146 357Q146 216 209 139T386 62Z" />
<glyph unicode="R" horiz-adv-x="693" d="M88 0V712H371Q486 712 547 661T609 514Q609 422 547 370T371 317L445 331Q484 331 512 310T557 241L647 0H560L472 237Q455 282 426 296T347 311H169V0H88ZM169 379H364Q447 379 487 413T528 513Q528 579 488 611T364
644H169V379Z" />
<glyph unicode="S" horiz-adv-x="623" d="M314 -8Q259 -8 211 1T122 31T48 82L79 145Q133 100 187 81T315 62Q400 62 447 95T494 190Q494 227 471 249T407 285T315 311Q264 322 218 336T137 373T81 429T61 514Q61 575 93 621T183 694T320 720Q369 720 414 710T497
679T566 630L534 567Q485 610 433 630T320 650Q237 650 190 615T143 517Q143 478 164 454T223 416T310 389Q362 377 410 363T495 329T555 276T577 193Q577 132 545 87T454 17T314 -8Z" />
<glyph unicode="T" horiz-adv-x="603" d="M260 0V642H12V712H591V642H343V0H260Z" />
<glyph unicode="U" horiz-adv-x="731" d="M366 -8Q227 -8 155 64T83 279V712H164V272Q164 167 215 115T366 62Q464 62 515 115T566 272V712H648V279Q648 138 576 65T366 -8Z" />
<glyph unicode="V" horiz-adv-x="697" d="M313 0L2 712H89L366 66H333L611 712H696L385 0H313Z" />
<glyph unicode="W" horiz-adv-x="1112" d="M283 0L33 712H117L335 70H303L526 712L589 711L808 70H777L997 712H1078L829 0H759L545 614H567L352 0H283Z" />
<glyph unicode="X" horiz-adv-x="652" d="M106 0H8L279 365L327 426L535 712H632L373 364L326 302L106 0ZM547 0L326 302L279 365L21 712H119L327 426L373 364L644 0H547Z" />
<glyph unicode="Y" horiz-adv-x="607" d="M262 0V320L280 262L-18 712H78L318 340H290L530 712H624L327 262L344 320V0H262Z" />
<glyph unicode="Z" horiz-adv-x="596" d="M45 0V61L482 685L480 643H45V712H548V652L111 27L113 69H558V0H45Z" />
<glyph unicode="[" horiz-adv-x="317" d="M110 -182V712H309V648H191V-117H309V-182H110Z" />
<glyph unicode="\" horiz-adv-x="285" d="M233 -55L-23 749H51L308 -55H233Z" />
<glyph unicode="]" horiz-adv-x="317" d="M207 -182H8V-117H126V648H8V712H207V-182Z" />
<glyph unicode="^" horiz-adv-x="600" d="M332 635L555 142H486L280 602H320L114 142H46L268 635H332Z" />
<glyph unicode="_" horiz-adv-x="505" d="M8 -53V0H497V-53H8Z" />
<glyph unicode="`" horiz-adv-x="300" d="M123 557L-14 761H80L180 557H123Z" />
<glyph unicode="a" horiz-adv-x="600" d="M271 -7Q204 -7 154 24T76 114T48 252Q48 331 76 390T154 482T271 515Q340 515 388 481T453 384L441 376V503H521V0H441V130L453 124Q436 61 388 27T271 -7ZM287 60Q361 60 401 110T441 254Q441 347 401 397T287 447Q213
447 172 396T130 252Q130 160 171 110T287 60Z" />
<glyph unicode="b" horiz-adv-x="600" d="M78 0V736H159V374L148 384Q165 446 213 480T329 515Q396 515 446 483T524 393T553 256Q553 177 525 118T446 26T329 -7Q261 -7 213 27T148 124L159 135V0H78ZM314 60Q387 60 428 111T469 256Q469 347 428 397T314 447Q239
447 199 397T159 254Q159 161 199 111T314 60Z" />
<glyph unicode="c" horiz-adv-x="495" d="M289 -7Q215 -7 161 25T78 115T48 252Q48 330 78 389T163 482T293 515Q344 515 391 498T470 449L443 389Q406 418 371 432T297 447Q221 447 177 396T132 252Q132 160 176 110T297 60Q334 60 370 74T443 118L470 58Q438
28 390 11T289 -7Z" />
<glyph unicode="d" horiz-adv-x="600" d="M521 0H441V135L453 124Q436 61 388 27T271 -7Q205 -7 155 25T76 117T48 256Q48 335 75 393T153 483T271 515Q340 515 388 481T453 384L440 374V736H521V0ZM287 60Q360 60 400 110T441 254Q441 346 401 396T287 447Q213
447 172 397T130 256Q130 163 171 112T287 60Z" />
<glyph unicode="e" horiz-adv-x="544" d="M490 60Q457 29 406 11T300 -7Q222 -7 166 24T79 113T48 253Q48 331 78 390T161 482T285 515Q352 515 400 486T473 401T499 269V254H119V307H453L427 270Q429 358 393 405T286 452Q213 452 172 401T130 258Q130 160 173
110T301 60Q345 60 385 74T463 119L490 60Z" />
<glyph unicode="f" horiz-adv-x="337" d="M7 439V503H309V439H7ZM323 662Q295 670 271 670Q247 670 228 662T197 631T186 570V0H105V580Q105 661 145 700T255 740Q272 740 289 738T323 731V662Z" />
<glyph unicode="g" horiz-adv-x="604" d="M299 -223Q185 -223 101 -171L115 -105Q162 -132 204 -144T299 -156Q371 -156 408 -118T446 -3V133L457 146Q445 106 420 77T357 31T273 15Q206 15 156 46T77 134T48 265Q48 340 76 396T155 483T273 515Q343 515 391 481T457
384L445 395V503H526V4Q526 -109 469 -166T299 -223ZM289 83Q362 83 403 131T445 265Q445 350 404 398T289 447Q215 447 173 399T130 265Q130 179 172 131T289 83Z" />
<glyph unicode="h" horiz-adv-x="585" d="M78 0V736H159V401L146 391Q167 452 216 483T329 515Q510 515 510 316V0H429V312Q429 382 401 414T313 447Q243 447 201 404T159 288V0H78Z" />
<glyph unicode="i" horiz-adv-x="238" d="M78 0V503H159V0H78ZM326 716H425V624H326V716Z" />
<glyph unicode="j" horiz-adv-x="238" d="M-55 -142Q-40 -146 -29 -148T-6 -150Q17 -150 36 -142T67 -112T78 -50V503H159V-60Q159 -141 119 -180T11 -220Q-5 -220 -22 -218T-55 -211V-142ZM325 716H424V624H325V716Z" />
<glyph unicode="k" horiz-adv-x="515" d="M417 0L143 257L396 502H499L219 234L222 285L523 0H417ZM78 0V736H159V0H78Z" />
<glyph unicode="l" horiz-adv-x="238" d="M78 0V736H159V0H78Z" />
<glyph unicode="m" horiz-adv-x="879" d="M78 0V362Q78 397 77 432T70 503H147L156 399L146 392Q164 451 208 483T314 515Q387 515 427 479T479 369L455 382Q471 443 519 479T636 515Q719 515 761 466T803 316V0H722V312Q722 382 697 414T618 447Q555 447 519
404T482 287V0H401V312Q401 382 376 414T296 447Q232 447 196 404T159 287V0H78Z" />
<glyph unicode="n" horiz-adv-x="585" d="M78 0V362Q78 397 77 432T70 503H147L156 399L146 391Q167 452 216 483T329 515Q510 515 510 316V0H429V312Q429 382 401 414T313 447Q243 447 201 404T159 288V0H78Z" />
<glyph unicode="o" horiz-adv-x="572" d="M286 -7Q214 -7 161 25T78 115T48 254Q48 333 77 392T160 483T286 515Q358 515 411 483T494 392T524 254Q524 174 495 116T412 25T286 -7ZM286 60Q360 60 400 109T441 254Q441 347 400 397T286 447Q213 447 172 397T130
254Q130 159 170 110T286 60Z" />
<glyph unicode="p" horiz-adv-x="600" d="M78 -216V362Q78 397 77 432T70 503H147L156 399L148 384Q165 447 213 481T329 515Q395 515 445 482T524 390T553 252Q553 173 525 115T446 25T329 -7Q261 -7 213 27T148 124L159 134V-216H78ZM314 60Q387 60 428 110T469
252Q469 344 428 395T314 447Q239 447 199 397T159 254Q159 161 199 111T314 60Z" />
<glyph unicode="q" horiz-adv-x="600" d="M521 -216H440V134L453 124Q436 61 388 27T271 -7Q204 -7 154 24T76 114T48 252Q48 331 76 390T154 482T271 515Q340 515 388 481T453 384L443 399L454 503H529Q525 468 523 433T521 362V-216ZM287 60Q361 60 401 110T441
254Q441 347 401 397T287 447Q213 447 172 396T130 252Q130 160 171 110T287 60Z" />
<glyph unicode="r" horiz-adv-x="362" d="M78 0V362Q78 397 77 432T70 503H147L158 379L147 382Q161 448 207 481T312 515Q325 515 336 514T358 509L356 435Q333 443 303 443Q251 443 220 420T174 362T159 287V0H78Z" />
<glyph unicode="s" horiz-adv-x="496" d="M248 -7Q121 -7 47 58L74 118Q114 87 156 73T251 58Q308 58 337 77T367 134Q367 164 347 181T281 210L196 230Q133 244 99 280T64 366Q64 410 88 443T155 496T257 515Q310 515 357 498T436 449L409 390Q373 420 336 434T257
449Q203 449 174 428T144 371Q144 340 162 322T222 294L307 273Q378 258 411 224T445 136Q445 71 392 32T248 -7Z" />
<glyph unicode="t" horiz-adv-x="350" d="M7 439V503H330V439H7ZM328 72V3Q311 -2 295 -4T258 -7Q188 -7 147 33T105 153V632L186 661V164Q186 124 197 102T229 72T274 63Q289 63 301 65T328 72Z" />
<glyph unicode="u" horiz-adv-x="577" d="M256 -7Q166 -7 121 43T75 191V503H156V193Q156 125 184 93T269 61Q336 61 377 104T418 219V503H499V0H420V109L432 115Q412 55 365 24T256 -7Z" />
<glyph unicode="v" horiz-adv-x="531" d="M226 0L12 502H97L279 59H255L439 502H520L303 0H226Z" />
<glyph unicode="w" horiz-adv-x="869" d="M213 0L27 503H112L267 60H241L401 503H472L630 60H604L762 503H842L656 0H578L412 453H456L291 0H213Z" />
<glyph unicode="x" horiz-adv-x="535" d="M426 0L267 198L220 259L23 503H121L267 318L316 259L523 0H426ZM110 0H11L220 259L267 318L413 503H512L316 259L267 198L110 0Z" />
<glyph unicode="y" horiz-adv-x="531" d="M54 -227L37 -164Q83 -153 114 -139T167 -101T205 -40L237 34L255 59L439 503H520L285 -46Q258 -107 224 -143T148 -199T54 -227ZM238 -26L12 503H97L279 59L238 -26Z" />
<glyph unicode="z" horiz-adv-x="518" d="M50 0V56L394 472L407 439H61V503H464V444L122 30L111 64H475V0H50Z" />
<glyph unicode="{" horiz-adv-x="354" d="M287 -182Q219 -182 183 -147T147 -46V146Q147 190 132 211T77 240L49 247V284L77 291Q116 299 131 320T147 385V576Q147 643 185 677T287 712H346V648H295Q265 648 247 628T228 567V371Q228 334 214 311T179 276T136
264V268Q157 268 178 256T214 220T228 160V-37Q228 -77 246 -97T295 -117H346V-182H287Z" />
<glyph unicode="|" horiz-adv-x="264" d="M93 -182V712H171V-182H93Z" />
<glyph unicode="}" horiz-adv-x="355" d="M67 -182H8V-117H60Q89 -117 107 -97T126 -37V160Q126 196 140 220T176 256T218 268V264Q197 264 176 275T141 310T126 371V567Q126 607 108 627T60 648H8V712H67Q130 712 168 678T207 576V385Q207 341 222 320T278 291L305
284V247L278 240Q238 232 223 211T207 146V-46Q207 -112 171 -147T67 -182Z" />
<glyph unicode="~" horiz-adv-x="600" d="M496 343L546 316Q527 270 495 244T416 217Q383 217 352 229T292 257T238 285T189 298Q155 298 136 279T104 231L54 259Q72 305 105 331T184 357Q217 357 248 345T308 318T362 290T411 277Q445 277 464 296T496 343Z" />
<glyph unicode="&#xa0;" horiz-adv-x="261" />
<glyph unicode="&#xa1;" horiz-adv-x="231" d="M90 304H140L166 -182H65L90 304ZM64 388V492H167V388H64Z" />
<glyph unicode="&#xa2;" horiz-adv-x="600" d="M334 -7Q262 -7 208 25T123 115T92 252Q92 330 123 389T209 481T337 515Q389 515 436 498T514 449L487 389Q451 418 415 432T342 447Q265 447 221 395T176 252Q176 161 220 111T342 60Q379 60 415 74T487 118L514
58Q482 28 434 11T334 -7ZM299 -119V626H368V-119H299Z" />
<glyph unicode="&#xa3;" horiz-adv-x="600" d="M45 327V386H409V327H45ZM227 520V223Q227 174 217 142T184 88T122 52V69H563V0H45V57Q99 82 122 115T145 202V526Q145 586 169 629T237 696T342 720Q406 720 464 697T568 630L535 567Q492 608 444 629T346 651Q288
651 258 618T227 520Z" />
<glyph unicode="&#xa4;" horiz-adv-x="600" d="M300 -3Q233 -3 178 31T90 121T57 247Q57 317 89 373T177 464T300 498Q367 498 422 464T510 374T543 247Q543 178 510 122T422 31T300 -3ZM95 -5L53 37L140 128L181 82L95 -5ZM502 -5L418 81L461 124L544 37L502
-5ZM299 64Q347 64 386 89T448 155T471 247Q471 298 448 339T386 405T299 430Q252 430 213 406T151 340T128 247Q128 197 151 156T213 89T299 64ZM131 376L53 457L96 501L173 420L131 376ZM468 377L424 422L501 501L545 457L468 377Z" />
<glyph unicode="&#xa5;" horiz-adv-x="600" d="M259 0V378L277 315L-8 712H85L311 393H290L515 712H608L323 315L341 378V0H259ZM70 177V236H530V177H70ZM70 329V389H530V329H70Z" />
<glyph unicode="&#xa6;" horiz-adv-x="264" d="M93 375V712H171V375H93ZM93 -182V156H171V-182H93Z" />
<glyph unicode="&#xa7;" horiz-adv-x="542" d="M414 47L381 95Q401 112 412 136T423 188Q423 223 399 251T317 309L223 359Q171 385 141 412T96 470T82 542Q82 623 136 671T281 719Q330 719 376 702T455 655L428 596Q391 625 355 639T283 653Q225 653 194 626T162
546Q162 506 182 479T253 427L350 379Q431 338 466 296T501 195Q501 151 477 111T414 47ZM262 -189Q202 -189 153 -173T64 -124L91 -64Q134 -95 174 -108T261 -122Q317 -122 348 -95T380 -16Q380 25 360 52T289 104L192 152Q110 191 76 233T41 335Q41 379 62 418T119
480L157 432Q138 415 128 392T118 342Q118 308 142 281T225 221L319 173Q371 146 402 119T446 60T460 -12Q460 -94 407 -141T262 -189Z" />
<glyph unicode="&#xa8;" horiz-adv-x="300" d="M193 702H283V616H193V702ZM20 702H110V616H20V702Z" />
<glyph unicode="&#xa9;" horiz-adv-x="823" d="M412 -5Q335 -5 270 22T155 99T79 215T51 357Q51 434 78 499T155 613T269 689T412 717Q489 717 554 690T669 614T745 500T773 357Q773 281 746 215T669 100T555 23T412 -5ZM412 40Q479 40 536 64T635 131T701 232T725
357Q725 424 702 481T636 581T536 648T412 672Q345 672 288 648T188 582T122 482T98 357Q98 290 121 232T187 131T287 64T412 40ZM420 138Q325 138 270 197T215 357Q215 423 240 472T311 547T420 574Q463 574 503 560T571 519L547 465Q518 488 489 500T426 512Q362
512 328 472T293 357Q293 281 327 241T426 200Q459 200 488 212T547 247L571 193Q543 167 503 153T420 138Z" />
<glyph unicode="&#xaa;" horiz-adv-x="333" d="M134 411Q104 411 81 423T44 456T30 501Q30 549 68 568T205 588H230V550H211Q163 550 139 545T107 531T99 506Q99 488 113 475T150 462Q180 462 200 481T221 535V605Q221 636 207 649T164 662Q137 662 112 654T65
632L45 684Q69 698 101 707T169 717Q227 717 259 689T291 594V416H222V486L228 478Q218 446 193 429T134 411Z" />
<glyph unicode="&#xab;" horiz-adv-x="445" d="M158 88L26 267L160 448H235L106 268L232 88H158ZM341 88L209 267L343 448H418L289 268L415 88H341Z" />
<glyph unicode="&#xac;" horiz-adv-x="600" d="M546 423V151H485V361H54V423H546Z" />
<glyph unicode="&#xad;" horiz-adv-x="429" d="M73 235V302H356V235H73Z" />
<glyph unicode="&#xae;" horiz-adv-x="823" d="M412 -5Q335 -5 270 22T155 99T79 215T51 357Q51 434 78 499T155 613T269 689T412 717Q489 717 554 690T669 614T745 500T773 357Q773 281 746 215T669 100T555 23T412 -5ZM412 40Q479 40 536 64T635 131T701 232T725
357Q725 424 702 481T636 581T536 648T412 672Q345 672 288 648T188 582T122 482T98 357Q98 290 121 232T187 131T287 64T412 40ZM261 143V570H439Q510 570 548 536T587 443Q587 386 549 352T441 318L450 324Q478 324 498 313T535 274L613 143H530L450 280Q438
299 425 306T388 314H335V143H261ZM335 372H430Q473 372 493 388T513 440Q513 477 493 493T430 510H335V372Z" />
<glyph unicode="&#xaf;" horiz-adv-x="300" d="M0 628V690H303V628H0Z" />
<glyph unicode="&#xb0;" horiz-adv-x="369" d="M185 424Q143 424 110 443T57 495T37 571Q37 613 56 646T109 698T185 717Q226 717 259 698T311 646T331 571Q331 529 312 496T259 443T185 424ZM185 478Q223 478 248 504T274 571Q274 611 249 637T185 664Q145 664
120 638T95 571Q95 530 120 504T185 478Z" />
<glyph unicode="&#xb1;" horiz-adv-x="600" d="M546 360V298H54V360H546ZM269 534H331V124H269V534ZM546 63V0H54V63H546Z" />
<glyph unicode="&#xb2;" horiz-adv-x="380" d="M52 285V339L196 498Q221 525 234 549T248 597Q248 627 230 642T181 657Q154 657 123 645T63 611L37 665Q65 686 105 701T188 716Q251 716 286 684T322 601Q322 565 305 531T248 456L118 320L113 345H337V285H52Z" />
<glyph unicode="&#xb3;" horiz-adv-x="380" d="M184 281Q141 281 100 296T32 333L57 386Q86 365 117 353T180 340Q217 340 239 356T261 406Q261 441 239 456T176 472H119V530H165Q205 530 227 547T249 597Q249 627 231 642T182 657Q153 657 122 645T63 611L37
665Q65 686 105 701T186 716Q252 716 286 684T321 603Q321 564 299 538T245 502L244 507Q284 498 307 472T331 402Q331 365 313 338T262 296T184 281Z" />
<glyph unicode="&#xb4;" horiz-adv-x="300" d="M180 557H123L223 761H317L180 557Z" />
<glyph unicode="&#xb5;" horiz-adv-x="577" d="M499 503V0H420V109L432 115Q412 55 365 24T256 -7Q214 -7 185 5T134 41L156 71V-216H75V503H156V193Q156 125 184 93T269 61Q336 61 377 104T418 219V503H499Z" />
<glyph unicode="&#xb6;" horiz-adv-x="588" d="M500 712V-182H432V651H313V-182H245V313Q184 313 140 338T71 409T46 513Q46 571 70 616T140 686T247 712H500Z" />
<glyph unicode="&#xb7;" horiz-adv-x="231" d="M64 320H167V217H64V320Z" />
<glyph unicode="&#xb8;" horiz-adv-x="300" d="M153 -195Q133 -195 108 -191T64 -176L77 -132Q98 -140 116 -143T153 -146Q181 -146 195 -137T209 -111Q209 -84 174 -84Q161 -84 150 -86T128 -93L108 -77L119 20H176L168 -53L143 -51Q156 -46 168 -44T193 -41Q222
-41 246 -58T270 -111Q270 -147 240 -171T153 -195Z" />
<glyph unicode="&#xb9;" horiz-adv-x="380" d="M180 319V657L212 649L108 585V659L197 712H252V319H180ZM103 285V345H328V285H103Z" />
<glyph unicode="&#xba;" horiz-adv-x="345" d="M172 411Q125 411 92 430T40 485T22 565Q22 610 40 644T91 697T172 717Q220 717 253 698T305 644T323 565Q323 520 305 485T254 431T172 411ZM172 469Q211 469 231 494T251 565Q251 610 231 635T172 660Q134 660
115 635T95 565Q95 519 114 494T172 469Z" />
<glyph unicode="&#xbb;" horiz-adv-x="445" d="M104 88H30L157 268L27 448H103L236 267L104 88ZM287 88H213L340 268L210 448H286L419 267L287 88Z" />
<glyph unicode="&#xbc;" horiz-adv-x="935" d="M180 319V657L212 649L108 585V659L197 712H252V319H180ZM103 285V345H328V285H103ZM287 -25L227 9L649 737L708 703L287 -25ZM781 0V343L798 344L638 116L637 141H914V84H587V137L791 427H851V0H781Z" />
<glyph unicode="&#xbd;" horiz-adv-x="935" d="M180 319V657L212 649L108 585V659L197 712H252V319H180ZM103 285V345H328V285H103ZM287 -25L227 9L649 737L708 703L287 -25ZM607 0V54L751 213Q776 240 789 264T803 312Q803 342 785 357T736 372Q709 372 678 360T618
326L592 380Q620 401 660 416T743 431Q806 431 841 399T877 316Q877 280 860 246T803 171L673 35L668 60H892V0H607Z" />
<glyph unicode="&#xbe;" horiz-adv-x="935" d="M184 281Q141 281 100 296T32 333L57 386Q86 365 117 353T180 340Q217 340 239 356T261 406Q261 441 239 456T176 472H119V530H165Q205 530 227 547T249 597Q249 627 231 642T182 657Q153 657 122 645T63 611L37
665Q65 686 105 701T186 716Q252 716 286 684T321 603Q321 564 299 538T245 502L244 507Q284 498 307 472T331 402Q331 365 313 338T262 296T184 281ZM287 -25L227 9L649 737L708 703L287 -25ZM781 0V343L798 344L638 116L637 141H914V84H587V137L791 427H851V0H781Z"
/>
<glyph unicode="&#xbf;" horiz-adv-x="447" d="M217 -189Q162 -189 118 -170T49 -116T24 -33Q24 12 41 44T85 101T139 153T187 211T211 288L214 306H263V281Q263 230 248 195T209 134T162 84T124 35T108 -28Q108 -69 138 -94T220 -119Q255 -119 290 -109T359 -78V-152Q326
-172 289 -180T217 -189ZM186 388V492H289V388H186Z" />
<glyph unicode="&#xc0;" horiz-adv-x="734" d="M103 0H18L331 712H403L716 0H632L353 652H383L103 0ZM151 183L180 251H554L583 183H151ZM338 773L204 926H293L395 773H338Z" />
<glyph unicode="&#xc1;" horiz-adv-x="734" d="M103 0H18L331 712H403L716 0H632L353 652H383L103 0ZM151 183L180 251H554L583 183H151ZM395 773H338L440 926H529L395 773Z" />
<glyph unicode="&#xc2;" horiz-adv-x="734" d="M103 0H18L331 712H403L716 0H632L353 652H383L103 0ZM151 183L180 251H554L583 183H151ZM293 773H219L339 926H394L514 773H440L367 877L293 773Z" />
<glyph unicode="&#xc3;" horiz-adv-x="734" d="M103 0H18L331 712H403L716 0H632L353 652H383L103 0ZM151 183L180 251H554L583 183H151ZM204 794Q204 850 229 880T294 910Q322 910 347 896T395 867T437 852Q460 852 472 868T484 907H529Q529 851 504 821T439
791Q411 791 386 805T338 834T296 849Q273 849 261 833T249 794H204Z" />
<glyph unicode="&#xc4;" horiz-adv-x="734" d="M103 0H18L331 712H403L716 0H632L353 652H383L103 0ZM151 183L180 251H554L583 183H151ZM408 893H498V807H408V893ZM235 893H325V807H235V893Z" />
<glyph unicode="&#xc5;" horiz-adv-x="734" d="M368 681Q325 681 296 709T266 781Q266 823 295 852T368 881Q410 881 440 852T470 781Q470 738 440 710T368 681ZM368 730Q389 730 402 744T416 781Q416 802 403 816T368 831Q346 831 333 817T319 781Q319 759 332
745T368 730ZM103 0H18L331 712H403L716 0H632L353 652H383L103 0ZM151 183L180 251H554L583 183H151Z" />
<glyph unicode="&#xc6;" horiz-adv-x="1001" d="M-2 0L431 712H951V643H449L476 655L88 0H-2ZM144 183L173 251H563L579 183H144ZM559 0L500 675H574L628 69H951V0H559ZM566 327V396H931V327H566Z" />
<glyph unicode="&#xc7;" horiz-adv-x="684" d="M392 -8Q290 -8 216 36T102 162T62 357Q62 470 102 551T216 676T392 720Q465 720 527 698T634 630L603 567Q552 611 502 630T393 649Q276 649 212 573T147 357Q147 216 211 140T393 63Q452 63 502 82T603 145L634
82Q589 37 527 15T392 -8ZM387 -195Q367 -195 342 -191T298 -176L311 -132Q332 -140 350 -143T387 -146Q415 -146 429 -137T443 -111Q443 -84 408 -84Q395 -84 384 -86T362 -93L342 -77L353 20H410L402 -53L377 -51Q390 -46 402 -44T427 -41Q456 -41 480 -58T504
-111Q504 -147 474 -171T387 -195Z" />
<glyph unicode="&#xc8;" horiz-adv-x="588" d="M88 0V712H538V644H169V396H518V327H169V68H538V0H88ZM298 773L164 926H253L355 773H298Z" />
<glyph unicode="&#xc9;" horiz-adv-x="588" d="M88 0V712H538V644H169V396H518V327H169V68H538V0H88ZM355 773H298L400 926H489L355 773Z" />
<glyph unicode="&#xca;" horiz-adv-x="588" d="M88 0V712H538V644H169V396H518V327H169V68H538V0H88ZM253 773H179L299 926H354L474 773H400L327 877L253 773Z" />
<glyph unicode="&#xcb;" horiz-adv-x="588" d="M88 0V712H538V644H169V396H518V327H169V68H538V0H88ZM368 893H458V807H368V893ZM195 893H285V807H195V893Z" />
<glyph unicode="&#xcc;" horiz-adv-x="258" d="M88 0V712H170V0H88ZM356 773L222 926H311L413 773H356Z" />
<glyph unicode="&#xcd;" horiz-adv-x="258" d="M88 0V712H170V0H88ZM413 773H356L458 926H547L413 773Z" />
<glyph unicode="&#xce;" horiz-adv-x="258" d="M88 0V712H170V0H88ZM311 773H237L357 926H412L532 773H458L385 877L311 773Z" />
<glyph unicode="&#xcf;" horiz-adv-x="258" d="M88 0V712H170V0H88ZM426 893H516V807H426V893ZM253 893H343V807H253V893Z" />
<glyph unicode="&#xd0;" horiz-adv-x="760" d="M8 328V394H378V328H8ZM101 0V712H340Q454 712 534 671T656 550T698 357Q698 243 656 164T534 42T340 0H101ZM184 70H336Q474 70 543 142T613 357Q613 642 336 642H184V70Z" />
<glyph unicode="&#xd1;" horiz-adv-x="746" d="M88 0V712H151L605 107L581 101V712H659V0H595L142 604L165 611V0H88ZM210 794Q210 850 235 880T300 910Q328 910 353 896T401 867T443 852Q466 852 478 868T490 907H535Q535 851 510 821T445 791Q417 791 392 805T344
834T302 849Q279 849 267 833T255 794H210Z" />
<glyph unicode="&#xd2;" horiz-adv-x="772" d="M386 -8Q286 -8 214 36T102 162T62 356Q62 469 101 550T212 676T386 720Q486 720 559 676T671 551T710 357Q710 244 671 162T559 36T386 -8ZM386 62Q499 62 562 138T625 357Q625 499 562 574T386 650Q273 650 210
574T146 357Q146 216 209 139T386 62ZM356 773L222 926H311L413 773H356Z" />
<glyph unicode="&#xd3;" horiz-adv-x="772" d="M386 -8Q286 -8 214 36T102 162T62 356Q62 469 101 550T212 676T386 720Q486 720 559 676T671 551T710 357Q710 244 671 162T559 36T386 -8ZM386 62Q499 62 562 138T625 357Q625 499 562 574T386 650Q273 650 210
574T146 357Q146 216 209 139T386 62ZM413 773H356L458 926H547L413 773Z" />
<glyph unicode="&#xd4;" horiz-adv-x="772" d="M386 -8Q286 -8 214 36T102 162T62 356Q62 469 101 550T212 676T386 720Q486 720 559 676T671 551T710 357Q710 244 671 162T559 36T386 -8ZM386 62Q499 62 562 138T625 357Q625 499 562 574T386 650Q273 650 210
574T146 357Q146 216 209 139T386 62ZM311 773H237L357 926H412L532 773H458L385 877L311 773Z" />
<glyph unicode="&#xd5;" horiz-adv-x="772" d="M386 -8Q286 -8 214 36T102 162T62 356Q62 469 101 550T212 676T386 720Q486 720 559 676T671 551T710 357Q710 244 671 162T559 36T386 -8ZM386 62Q499 62 562 138T625 357Q625 499 562 574T386 650Q273 650 210
574T146 357Q146 216 209 139T386 62ZM222 794Q222 850 247 880T312 910Q340 910 365 896T413 867T455 852Q478 852 490 868T502 907H547Q547 851 522 821T457 791Q429 791 404 805T356 834T314 849Q291 849 279 833T267 794H222Z" />
<glyph unicode="&#xd6;" horiz-adv-x="772" d="M386 -8Q286 -8 214 36T102 162T62 356Q62 469 101 550T212 676T386 720Q486 720 559 676T671 551T710 357Q710 244 671 162T559 36T386 -8ZM386 62Q499 62 562 138T625 357Q625 499 562 574T386 650Q273 650 210
574T146 357Q146 216 209 139T386 62ZM426 893H516V807H426V893ZM253 893H343V807H253V893Z" />
<glyph unicode="&#xd7;" horiz-adv-x="600" d="M492 524L536 480L108 52L64 95L492 524ZM108 524L536 95L492 52L64 480L108 524Z" />
<glyph unicode="&#xd8;" horiz-adv-x="772" d="M386 -8Q286 -8 214 36T102 162T62 356Q62 469 101 550T212 676T386 720Q486 720 559 676T671 551T710 357Q710 244 671 162T559 36T386 -8ZM189 -47L132 -14L583 759L639 726L189 -47ZM386 62Q499 62 562 138T625
357Q625 499 562 574T386 650Q273 650 210 574T146 357Q146 216 209 139T386 62Z" />
<glyph unicode="&#xd9;" horiz-adv-x="731" d="M366 -8Q227 -8 155 64T83 279V712H164V272Q164 167 215 115T366 62Q464 62 515 115T566 272V712H648V279Q648 138 576 65T366 -8ZM337 773L203 926H292L394 773H337Z" />
<glyph unicode="&#xda;" horiz-adv-x="731" d="M366 -8Q227 -8 155 64T83 279V712H164V272Q164 167 215 115T366 62Q464 62 515 115T566 272V712H648V279Q648 138 576 65T366 -8ZM394 773H337L439 926H528L394 773Z" />
<glyph unicode="&#xdb;" horiz-adv-x="731" d="M366 -8Q227 -8 155 64T83 279V712H164V272Q164 167 215 115T366 62Q464 62 515 115T566 272V712H648V279Q648 138 576 65T366 -8ZM292 773H218L338 926H393L513 773H439L366 877L292 773Z" />
<glyph unicode="&#xdc;" horiz-adv-x="731" d="M366 -8Q227 -8 155 64T83 279V712H164V272Q164 167 215 115T366 62Q464 62 515 115T566 272V712H648V279Q648 138 576 65T366 -8ZM407 893H497V807H407V893ZM234 893H324V807H234V893Z" />
<glyph unicode="&#xdd;" horiz-adv-x="607" d="M262 0V320L280 262L-18 712H78L318 340H290L530 712H624L327 262L344 320V0H262ZM331 773H274L376 926H465L331 773Z" />
<glyph unicode="&#xde;" horiz-adv-x="651" d="M156 169V237H368Q448 237 486 268T524 363Q524 427 486 457T368 487H156V555H377Q486 555 545 505T605 363Q605 271 545 220T377 169H156ZM88 0V712H169V0H88Z" />
<glyph unicode="&#xdf;" horiz-adv-x="634" d="M78 0V494Q78 615 141 678T319 741Q410 741 462 698T514 576Q514 531 498 493T443 422T335 363V378Q430 358 489 326T575 251T602 156Q602 106 579 70T514 13T413 -7Q358 -7 309 10T226 58L254 120Q295 88 334 74T415
59Q469 59 496 85T524 158Q524 193 501 224T424 282T273 334V396Q337 421 372 448T422 506T437 575Q437 624 407 650T319 676Q242 676 201 633T159 503V0H78Z" />
<glyph unicode="&#xe0;" horiz-adv-x="600" d="M271 -7Q204 -7 154 24T76 114T48 252Q48 331 76 390T154 482T271 515Q340 515 388 481T453 384L441 376V503H521V0H441V130L453 124Q436 61 388 27T271 -7ZM287 60Q361 60 401 110T441 254Q441 347 401 397T287
447Q213 447 172 396T130 252Q130 160 171 110T287 60ZM272 568L135 772H229L329 568H272Z" />
<glyph unicode="&#xe1;" horiz-adv-x="600" d="M271 -7Q204 -7 154 24T76 114T48 252Q48 331 76 390T154 482T271 515Q340 515 388 481T453 384L441 376V503H521V0H441V130L453 124Q436 61 388 27T271 -7ZM287 60Q361 60 401 110T441 254Q441 347 401 397T287
447Q213 447 172 396T130 252Q130 160 171 110T287 60ZM329 568H272L372 772H466L329 568Z" />
<glyph unicode="&#xe2;" horiz-adv-x="600" d="M271 -7Q204 -7 154 24T76 114T48 252Q48 331 76 390T154 482T271 515Q340 515 388 481T453 384L441 376V503H521V0H441V130L453 124Q436 61 388 27T271 -7ZM287 60Q361 60 401 110T441 254Q441 347 401 397T287
447Q213 447 172 396T130 252Q130 160 171 110T287 60ZM228 568H153L272 772H329L448 568H373L301 712L228 568Z" />
<glyph unicode="&#xe3;" horiz-adv-x="600" d="M271 -7Q204 -7 154 24T76 114T48 252Q48 331 76 390T154 482T271 515Q340 515 388 481T453 384L441 376V503H521V0H441V130L453 124Q436 61 388 27T271 -7ZM287 60Q361 60 401 110T441 254Q441 347 401 397T287
447Q213 447 172 396T130 252Q130 160 171 110T287 60ZM138 615Q138 670 163 700T228 730Q256 730 281 716T329 687T371 672Q394 672 406 688T418 727H463Q463 672 438 642T373 612Q345 612 320 626T272 655T230 670Q207 670 195 653T183 615H138Z" />
<glyph unicode="&#xe4;" horiz-adv-x="600" d="M271 -7Q204 -7 154 24T76 114T48 252Q48 331 76 390T154 482T271 515Q340 515 388 481T453 384L441 376V503H521V0H441V130L453 124Q436 61 388 27T271 -7ZM287 60Q361 60 401 110T441 254Q441 347 401 397T287
447Q213 447 172 396T130 252Q130 160 171 110T287 60ZM342 713H432V627H342V713ZM169 713H259V627H169V713Z" />
<glyph unicode="&#xe5;" horiz-adv-x="600" d="M271 -7Q204 -7 154 24T76 114T48 252Q48 331 76 390T154 482T271 515Q340 515 388 481T453 384L441 376V503H521V0H441V130L453 124Q436 61 388 27T271 -7ZM287 60Q361 60 401 110T441 254Q441 347 401 397T287
447Q213 447 172 396T130 252Q130 160 171 110T287 60ZM301 570Q258 570 229 598T199 670Q199 712 228 741T301 770Q329 770 352 757T388 721T402 670Q402 627 373 599T301 570ZM301 619Q322 619 335 633T349 670Q349 691 336 705T301 720Q279 720 266 706T252
670Q252 648 265 634T301 619Z" />
<glyph unicode="&#xe6;" horiz-adv-x="881" d="M641 -7Q532 -7 470 60T404 251Q402 329 430 388T509 481T628 515Q693 515 739 485T811 400T836 268V254H456V307H789L764 270Q766 358 731 405T627 452Q556 452 515 400T474 253Q474 161 517 111T643 60Q683 60
723 75T801 119L827 60Q794 30 744 12T641 -7ZM246 -7Q194 -7 152 13T86 68T61 150Q61 206 89 240T181 291T354 307H404V255H358Q276 255 230 245T164 212T144 155Q144 110 175 84T254 57Q296 57 327 77T376 132T394 213V323Q394 389 369 418T284 448Q239 448 196
435T109 394L82 453Q108 472 141 486T212 507T283 515Q377 515 423 467T469 323V184L441 183Q435 94 383 44T246 -7Z" />
<glyph unicode="&#xe7;" horiz-adv-x="495" d="M289 -7Q215 -7 161 25T78 115T48 252Q48 330 78 389T163 482T293 515Q344 515 391 498T470 449L443 389Q406 418 371 432T297 447Q221 447 177 396T132 252Q132 160 176 110T297 60Q334 60 370 74T443 118L470 58Q438
28 390 11T289 -7ZM283 -195Q263 -195 238 -191T194 -176L207 -132Q228 -140 246 -143T283 -146Q311 -146 325 -137T339 -111Q339 -84 304 -84Q291 -84 280 -86T258 -93L238 -77L249 20H306L298 -53L273 -51Q286 -46 298 -44T323 -41Q352 -41 376 -58T400 -111Q400
-147 370 -171T283 -195Z" />
<glyph unicode="&#xe8;" horiz-adv-x="544" d="M490 60Q457 29 406 11T300 -7Q222 -7 166 24T79 113T48 253Q48 331 78 390T161 482T285 515Q352 515 400 486T473 401T499 269V254H119V307H453L427 270Q429 358 393 405T286 452Q213 452 172 401T130 258Q130 160
173 110T301 60Q345 60 385 74T463 119L490 60ZM256 568L119 772H213L313 568H256Z" />
<glyph unicode="&#xe9;" horiz-adv-x="544" d="M490 60Q457 29 406 11T300 -7Q222 -7 166 24T79 113T48 253Q48 331 78 390T161 482T285 515Q352 515 400 486T473 401T499 269V254H119V307H453L427 270Q429 358 393 405T286 452Q213 452 172 401T130 258Q130 160
173 110T301 60Q345 60 385 74T463 119L490 60ZM313 568H256L356 772H450L313 568Z" />
<glyph unicode="&#xea;" horiz-adv-x="544" d="M490 60Q457 29 406 11T300 -7Q222 -7 166 24T79 113T48 253Q48 331 78 390T161 482T285 515Q352 515 400 486T473 401T499 269V254H119V307H453L427 270Q429 358 393 405T286 452Q213 452 172 401T130 258Q130 160
173 110T301 60Q345 60 385 74T463 119L490 60ZM212 568H137L256 772H313L432 568H357L285 712L212 568Z" />
<glyph unicode="&#xeb;" horiz-adv-x="544" d="M490 60Q457 29 406 11T300 -7Q222 -7 166 24T79 113T48 253Q48 331 78 390T161 482T285 515Q352 515 400 486T473 401T499 269V254H119V307H453L427 270Q429 358 393 405T286 452Q213 452 172 401T130 258Q130 160
173 110T301 60Q345 60 385 74T463 119L490 60ZM326 713H416V627H326V713ZM153 713H243V627H153V713Z" />
<glyph unicode="&#xec;" horiz-adv-x="238" d="M78 0V503H159V0H78ZM347 568L210 772H304L404 568H347Z" />
<glyph unicode="&#xed;" horiz-adv-x="238" d="M78 0V503H159V0H78ZM404 568H347L447 772H541L404 568Z" />
<glyph unicode="&#xee;" horiz-adv-x="238" d="M78 0V503H159V0H78ZM303 568H228L347 772H404L523 568H448L376 712L303 568Z" />
<glyph unicode="&#xef;" horiz-adv-x="238" d="M78 0V503H159V0H78ZM417 713H507V627H417V713ZM244 713H334V627H244V713Z" />
<glyph unicode="&#xf0;" horiz-adv-x="576" d="M284 -7Q213 -7 160 22T78 105T48 231Q48 303 77 357T158 440T281 470Q362 470 412 429T481 307L451 309Q452 407 418 482T318 608T162 684L183 744Q268 722 332 681T440 583T506 453T528 297Q528 148 466 71T284
-7ZM286 60Q358 60 399 105T441 231Q441 313 400 358T286 403Q213 403 172 358T130 231Q130 149 170 105T286 60ZM184 522L167 573L509 696L525 645L184 522Z" />
<glyph unicode="&#xf1;" horiz-adv-x="585" d="M78 0V362Q78 397 77 432T70 503H147L156 399L146 391Q167 452 216 483T329 515Q510 515 510 316V0H429V312Q429 382 401 414T313 447Q243 447 201 404T159 288V0H78ZM131 615Q131 670 156 700T221 730Q249 730 274
716T322 687T364 672Q387 672 399 688T411 727H456Q456 672 431 642T366 612Q338 612 313 626T265 655T223 670Q200 670 188 653T176 615H131Z" />
<glyph unicode="&#xf2;" horiz-adv-x="572" d="M286 -7Q214 -7 161 25T78 115T48 254Q48 333 77 392T160 483T286 515Q358 515 411 483T494 392T524 254Q524 174 495 116T412 25T286 -7ZM286 60Q360 60 400 109T441 254Q441 347 400 397T286 447Q213 447 172 397T130
254Q130 159 170 110T286 60ZM257 568L120 772H214L314 568H257Z" />
<glyph unicode="&#xf3;" horiz-adv-x="572" d="M286 -7Q214 -7 161 25T78 115T48 254Q48 333 77 392T160 483T286 515Q358 515 411 483T494 392T524 254Q524 174 495 116T412 25T286 -7ZM286 60Q360 60 400 109T441 254Q441 347 400 397T286 447Q213 447 172 397T130
254Q130 159 170 110T286 60ZM314 568H257L357 772H451L314 568Z" />
<glyph unicode="&#xf4;" horiz-adv-x="572" d="M286 -7Q214 -7 161 25T78 115T48 254Q48 333 77 392T160 483T286 515Q358 515 411 483T494 392T524 254Q524 174 495 116T412 25T286 -7ZM286 60Q360 60 400 109T441 254Q441 347 400 397T286 447Q213 447 172 397T130
254Q130 159 170 110T286 60ZM213 568H138L257 772H314L433 568H358L286 712L213 568Z" />
<glyph unicode="&#xf5;" horiz-adv-x="572" d="M286 -7Q214 -7 161 25T78 115T48 254Q48 333 77 392T160 483T286 515Q358 515 411 483T494 392T524 254Q524 174 495 116T412 25T286 -7ZM286 60Q360 60 400 109T441 254Q441 347 400 397T286 447Q213 447 172 397T130
254Q130 159 170 110T286 60ZM123 615Q123 670 148 700T213 730Q241 730 266 716T314 687T356 672Q379 672 391 688T403 727H448Q448 672 423 642T358 612Q330 612 305 626T257 655T215 670Q192 670 180 653T168 615H123Z" />
<glyph unicode="&#xf6;" horiz-adv-x="572" d="M286 -7Q214 -7 161 25T78 115T48 254Q48 333 77 392T160 483T286 515Q358 515 411 483T494 392T524 254Q524 174 495 116T412 25T286 -7ZM286 60Q360 60 400 109T441 254Q441 347 400 397T286 447Q213 447 172 397T130
254Q130 159 170 110T286 60ZM327 713H417V627H327V713ZM154 713H244V627H154V713Z" />
<glyph unicode="&#xf7;" horiz-adv-x="600" d="M247 439V535H341V439H247ZM247 38V134H341V38H247ZM546 319V256H54V319H546Z" />
<glyph unicode="&#xf8;" horiz-adv-x="572" d="M286 -7Q214 -7 161 25T78 115T48 254Q48 333 77 392T160 483T286 515Q358 515 411 483T494 392T524 254Q524 174 495 116T412 25T286 -7ZM144 -47L95 -18L427 553L477 526L144 -47ZM286 60Q361 60 401 109T442 254Q442
347 401 397T286 448Q212 448 171 398T130 254Q130 159 170 110T286 60Z" />
<glyph unicode="&#xf9;" horiz-adv-x="577" d="M256 -7Q166 -7 121 43T75 191V503H156V193Q156 125 184 93T269 61Q336 61 377 104T418 219V503H499V0H420V109L432 115Q412 55 365 24T256 -7ZM260 568L123 772H217L317 568H260Z" />
<glyph unicode="&#xfa;" horiz-adv-x="577" d="M256 -7Q166 -7 121 43T75 191V503H156V193Q156 125 184 93T269 61Q336 61 377 104T418 219V503H499V0H420V109L432 115Q412 55 365 24T256 -7ZM317 568H260L360 772H454L317 568Z" />
<glyph unicode="&#xfb;" horiz-adv-x="577" d="M256 -7Q166 -7 121 43T75 191V503H156V193Q156 125 184 93T269 61Q336 61 377 104T418 219V503H499V0H420V109L432 115Q412 55 365 24T256 -7ZM216 568H141L260 772H317L436 568H361L289 712L216 568Z" />
<glyph unicode="&#xfc;" horiz-adv-x="577" d="M256 -7Q166 -7 121 43T75 191V503H156V193Q156 125 184 93T269 61Q336 61 377 104T418 219V503H499V0H420V109L432 115Q412 55 365 24T256 -7ZM330 713H420V627H330V713ZM157 713H247V627H157V713Z" />
<glyph unicode="&#xfd;" horiz-adv-x="531" d="M54 -227L37 -164Q83 -153 114 -139T167 -101T205 -40L237 34L255 59L439 503H520L285 -46Q258 -107 224 -143T148 -199T54 -227ZM238 -26L12 503H97L279 59L238 -26ZM294 568H237L337 772H431L294 568Z" />
<glyph unicode="&#xfe;" horiz-adv-x="600" d="M78 -216V736H159V374L148 384Q165 447 213 481T329 515Q394 515 444 483T524 392T553 252Q553 170 524 112T445 24T329 -7Q261 -7 213 27T148 124L159 134V-216H78ZM314 60Q389 60 429 110T469 252Q469 342 429
394T314 447Q239 447 199 397T159 254Q159 161 199 111T314 60Z" />
<glyph unicode="&#xff;" horiz-adv-x="531" d="M54 -227L37 -164Q83 -153 114 -139T167 -101T205 -40L237 34L255 59L439 503H520L285 -46Q258 -107 224 -143T148 -199T54 -227ZM238 -26L12 503H97L279 59L238 -26ZM307 713H397V627H307V713ZM134 713H224V627H134V713Z" />
<glyph unicode="&#x2013;" horiz-adv-x="505" d="M0 242V295H505V242H0Z" />
<glyph unicode="&#x2014;" horiz-adv-x="1010" d="M0 242V295H1010V242H0Z" />
<glyph unicode="&#x2018;" horiz-adv-x="231" d="M125 718L163 688Q136 660 127 636T118 586L94 603H167V499H64V572Q64 613 77 648T125 718Z" />
<glyph unicode="&#x2019;" horiz-adv-x="231" d="M106 493L68 523Q95 552 104 576T113 625L137 609H64V712H167V639Q167 598 154 563T106 493Z" />
<glyph unicode="&#x201a;" horiz-adv-x="231" d="M106 -115L68 -86Q95 -57 104 -33T113 16L137 0H64V103H167V30Q167 -10 154 -45T106 -115Z" />
<glyph unicode="&#x201c;" horiz-adv-x="399" d="M125 718L163 688Q136 660 127 636T118 586L94 603H167V499H64V572Q64 613 77 648T125 718ZM293 718L331 688Q304 660 295 636T286 586L262 603H335V499H232V572Q232 613 245 648T293 718Z" />
<glyph unicode="&#x201d;" horiz-adv-x="399" d="M106 493L68 523Q95 552 104 576T113 625L137 609H64V712H167V639Q167 598 154 563T106 493ZM274 493L236 523Q263 552 272 576T281 625L305 609H232V712H335V639Q335 598 322 563T274 493Z" />
<glyph unicode="&#x201e;" horiz-adv-x="399" d="M106 -115L68 -86Q95 -57 104 -33T113 16L137 0H64V103H167V30Q167 -10 154 -45T106 -115ZM274 -115L236 -86Q263 -57 272 -33T281 16L305 0H232V103H335V30Q335 -10 322 -45T274 -115Z" />
<glyph unicode="&#x2022;" horiz-adv-x="529" d="M265 89Q216 89 174 112T107 177T82 268Q82 314 105 355T170 421T265 447Q314 447 355 424T421 360T447 268Q447 219 423 178T357 113T265 89Z" />
<glyph unicode="&#x2039;" horiz-adv-x="262" d="M158 88L26 267L160 448H235L106 268L232 88H158Z" />
<glyph unicode="&#x203a;" horiz-adv-x="262" d="M104 88H30L157 268L27 448H103L236 267L104 88Z" />
</font>
</defs>
</svg>
