<?xml version="1.0" standalone="no"?>
<!DOCTYPE svg PUBLIC "-//W3C//DTD SVG 1.1//EN" "http://www.w3.org/Graphics/SVG/1.1/DTD/svg11.dtd">
<svg xmlns="http://www.w3.org/2000/svg">
<defs >
<font id="Muli" horiz-adv-x="565" ><font-face
    font-family="Muli Light"
    units-per-em="1000"
    panose-1="0 0 0 0 0 0 0 0 0 0"
    ascent="1005"
    descent="-250"
    alphabetic="0" />
<glyph unicode=" " horiz-adv-x="255" />
<glyph unicode="!" horiz-adv-x="222" d="M92 175L73 712H149L130 175H92ZM69 87H154V0H69V87Z" />
<glyph unicode="&quot;" horiz-adv-x="410" d="M87 438L69 712H143L127 438H87ZM285 438L267 712H341L325 438H285Z" />
<glyph unicode="#" horiz-adv-x="606" d="M322 0L460 712H513L375 0H322ZM30 189V238H556V189H30ZM93 0L231 712H284L146 0H93ZM50 482V531H575V482H50Z" />
<glyph unicode="$" horiz-adv-x="600" d="M303 -8Q229 -8 164 16T50 88L75 137Q129 89 183 68T303 47Q388 47 435 84T483 188Q483 229 461 252T401 290T319 314T229 338T147 372T87 428T64 519Q64 578 95 623T181 694T306 720Q351 720 393 709T473 678T540 627L515
578Q429 665 306 665Q223 665 175 626T127 520Q127 475 149 449T210 408T292 381T381 358T463 327T523 274T546 189Q546 130 515 86T429 17T303 -8ZM282 -116V3L283 34V682L282 709V828H338V709L337 682V34L338 3V-116H282Z" />
<glyph unicode="%" horiz-adv-x="827" d="M190 281Q119 281 78 334T37 499Q37 611 78 663T190 716Q261 716 301 664T342 499Q342 388 302 335T190 281ZM190 329Q238 329 260 369T283 499Q283 587 261 627T190 668Q142 668 120 628T97 499Q97 410 119 370T190 329ZM179
0L591 712H648L237 0H179ZM637 -4Q566 -4 525 49T484 214Q484 326 525 378T637 431Q708 431 748 379T789 214Q789 103 749 50T637 -4ZM637 44Q685 44 707 84T730 214Q730 302 708 342T637 383Q589 383 567 343T544 214Q544 125 566 85T637 44Z" />
<glyph unicode="&amp;" horiz-adv-x="662" d="M280 -7Q214 -7 164 16T87 80T59 175Q59 239 98 291T228 399Q297 441 335 470T388 524T403 577Q403 618 378 643T309 668Q262 668 233 641T204 569Q204 548 211 529T235 486T283 424L527 139Q551 111 586 84T667 34L631
-8Q582 17 546 46T485 102L234 394Q200 435 180 464T152 518T143 569Q143 615 163 648T221 700T309 719Q378 719 419 682T461 581Q461 542 444 510T384 443T264 360Q211 326 179 297T134 239T120 176Q120 116 164 81T282 45Q360 45 418 90T508 217T544 413H601Q598
317 574 240T508 108T408 23T280 -7Z" />
<glyph unicode="&apos;" horiz-adv-x="212" d="M87 438L69 712H143L127 438H87Z" />
<glyph unicode="(" horiz-adv-x="300" d="M214 -182Q176 -107 152 -33T117 115T106 266Q106 342 117 416T151 563T214 712H267Q230 627 209 551T178 405T169 266Q169 198 178 127T209 -20T267 -182H214Z" />
<glyph unicode=")" horiz-adv-x="300" d="M86 -182H34Q70 -97 91 -21T122 127T131 266Q131 334 122 404T92 551T34 712H87Q144 600 169 490T195 266Q195 189 184 115T148 -33T86 -182Z" />
<glyph unicode="*" horiz-adv-x="453" d="M133 369L93 399L192 527L36 575L52 622L205 568L200 730H250L246 567L400 622L415 575L260 527L359 399L318 369L226 504L133 369Z" />
<glyph unicode="+" horiz-adv-x="600" d="M546 312V261H54V312H546ZM275 533H325V40H275V533Z" />
<glyph unicode="," horiz-adv-x="222" d="M101 -107L70 -82Q94 -55 101 -34T108 11L129 0H69V87H154V22Q154 -13 143 -45T101 -107Z" />
<glyph unicode="-" horiz-adv-x="424" d="M75 242V294H349V242H75Z" />
<glyph unicode="." horiz-adv-x="222" d="M69 87H154V0H69V87Z" />
<glyph unicode="/" horiz-adv-x="272" d="M38 -53H-22L233 747H294L38 -53Z" />
<glyph unicode="0" horiz-adv-x="600" d="M300 -8Q180 -8 118 84T56 356Q56 536 117 628T300 720Q421 720 482 628T544 357Q544 178 482 85T300 -8ZM300 47Q392 47 436 122T481 357Q481 516 437 590T300 665Q208 665 164 590T119 357Q119 199 163 123T300 47Z" />
<glyph unicode="1" horiz-adv-x="600" d="M293 27V686L333 656L146 535V598L320 712H355V27H293ZM135 0V53H513V0H135Z" />
<glyph unicode="2" horiz-adv-x="600" d="M88 0V47L341 329Q394 390 418 437T443 534Q443 597 407 631T302 666Q248 666 198 645T97 580L71 629Q113 670 176 695T302 720Q365 720 410 698T481 635T506 536Q506 475 478 418T385 288L134 14L133 53H537V0H88Z" />
<glyph unicode="3" horiz-adv-x="600" d="M296 -7Q228 -7 166 17T60 84L86 133Q135 90 186 69T296 47Q374 47 416 84T459 192Q459 264 415 299T284 335H207V389H268Q352 389 397 428T443 538Q443 599 406 632T302 666Q247 666 197 645T97 580L71 629Q114 672 175
696T303 720Q365 720 411 698T481 636T506 539Q505 473 471 425T376 361L372 371Q445 356 483 311T521 192Q521 100 460 47T296 -7Z" />
<glyph unicode="4" horiz-adv-x="600" d="M390 0V635H413L94 174L95 215H562V162H54V209L401 712H452V0H390Z" />
<glyph unicode="5" horiz-adv-x="600" d="M316 -7Q252 -7 190 17T84 84L110 133Q159 91 210 69T316 47Q394 47 439 93T485 218Q485 268 465 306T409 366T322 388Q266 388 224 366T151 296H103V712H521V659H165V346L145 349Q173 393 220 418T326 443Q395 443 444
415T520 335T547 218Q547 152 519 101T439 22T316 -7Z" />
<glyph unicode="6" horiz-adv-x="600" d="M322 -8Q196 -8 128 81T59 336Q59 458 91 544T183 675T326 720Q387 720 444 697T546 629L521 580Q470 625 423 645T327 666Q230 666 176 580T121 336V236L110 264Q118 318 147 358T222 420T324 442Q391 442 441 414T519
336T547 218Q547 153 519 102T439 21T322 -8ZM320 46Q394 46 439 93T485 218Q485 295 439 341T318 388Q268 388 229 367T168 307T146 218Q146 166 168 128T229 68T320 46Z" />
<glyph unicode="7" horiz-adv-x="600" d="M191 0H124L476 689L484 659H71V712H529V666L191 0Z" />
<glyph unicode="8" horiz-adv-x="600" d="M300 -7Q223 -7 167 16T81 83T50 187Q50 261 100 310T235 372L229 358Q150 373 108 419T66 532Q66 589 95 631T177 696T300 720Q370 720 422 697T504 631T534 532Q534 466 492 420T372 358L365 372Q453 361 501 311T550
187Q550 127 520 84T433 17T300 -7ZM300 47Q391 47 439 83T487 190Q487 256 435 293T300 338Q218 330 166 293T113 190Q113 120 161 84T300 47ZM300 384Q377 391 424 429T471 529Q471 593 426 629T300 666Q219 666 174 630T129 529Q129 467 176 429T300 384Z" />
<glyph unicode="9" horiz-adv-x="600" d="M278 720Q405 720 473 631T542 376Q542 254 510 168T418 37T274 -8Q214 -8 157 15T54 83L80 132Q132 87 178 67T274 46Q371 46 425 132T479 376V476L491 449Q483 394 454 354T378 292T277 270Q210 270 160 298T82 376T54
494Q54 559 83 610T163 691T278 720ZM281 666Q207 666 162 619T116 494Q116 417 162 371T283 324Q333 324 372 345T433 405T455 494Q455 546 433 584T372 644T281 666Z" />
<glyph unicode=":" horiz-adv-x="222" d="M69 87H154V0H69V87ZM69 490H154V403H69V490Z" />
<glyph unicode=";" horiz-adv-x="222" d="M69 490H154V403H69V490ZM101 -107L70 -82Q94 -55 101 -34T108 11L129 0H69V87H154V22Q154 -13 143 -45T101 -107Z" />
<glyph unicode="&lt;" horiz-adv-x="600" d="M54 262V311L546 539V484L84 272V302L546 90V33L54 262Z" />
<glyph unicode="=" horiz-adv-x="600" d="M546 413V362H54V413H546ZM546 211V160H54V211H546Z" />
<glyph unicode="&gt;" horiz-adv-x="600" d="M546 262L54 33V90L516 302V272L54 484V539L546 311V262Z" />
<glyph unicode="?" horiz-adv-x="440" d="M87 684Q120 702 156 710T226 719Q282 719 324 700T389 647T412 566Q412 519 394 482T350 413T296 348T248 277T224 189L222 175H185V193Q185 247 201 288T242 363T291 427T331 490T348 563Q348 610 315 637T225 665Q191
665 156 654T87 623V684ZM161 0V87H246V0H161Z" />
<glyph unicode="@" horiz-adv-x="931" d="M476 -151Q346 -151 251 -97T105 53T53 278Q53 378 84 458T174 597T309 686T476 717Q577 717 653 685T779 598T855 479T880 348Q880 266 862 212T813 125T747 79T678 65Q624 65 594 88T562 157H560Q536 116 497 91T406
65Q344 65 302 109T260 239Q260 290 275 337T318 421T385 481T474 503Q524 503 560 479T606 417H607L619 490H673L624 207Q614 149 632 130T688 110Q708 110 732 122T777 161T813 234T827 348Q827 403 806 459T742 562T633 637T476 666Q397 666 330 639T213 562T134
440T105 278Q105 163 149 78T277 -53T476 -100Q567 -100 631 -73T730 0H802Q759 -70 675 -110T476 -151ZM417 110Q473 110 511 143T570 227T590 333Q590 394 559 425T479 457Q426 457 389 425T332 344T312 243Q312 176 344 143T417 110Z" />
<glyph unicode="A" horiz-adv-x="727" d="M91 0H26L336 712H392L701 0H637L350 670H378L91 0ZM155 190L175 244H554L575 190H155Z" />
<glyph unicode="B" horiz-adv-x="676" d="M93 0V712H367Q474 712 534 664T594 525Q594 463 560 421T468 360V368Q534 355 572 310T611 193Q611 99 550 50T377 0H93ZM154 53H373Q463 53 505 87T548 192Q548 262 505 298T373 334H154V53ZM154 389H358Q444 389 488
424T532 527Q532 592 489 625T358 659H154V389Z" />
<glyph unicode="C" horiz-adv-x="684" d="M388 -8Q288 -8 216 35T105 161T65 357Q65 471 104 552T216 676T388 720Q462 720 523 697T630 627L605 578Q553 624 502 644T388 664Q265 664 197 584T129 357Q129 209 197 129T388 48Q450 48 501 68T605 134L630 85Q585
38 524 15T388 -8Z" />
<glyph unicode="D" horiz-adv-x="739" d="M93 0V712H321Q434 712 513 671T633 551T675 357Q675 242 633 163T512 42T321 0H93ZM154 54H318Q463 54 536 130T609 357Q609 658 318 658H154V54Z" />
<glyph unicode="E" horiz-adv-x="585" d="M93 0V712H531V659H154V388H511V334H154V53H531V0H93Z" />
<glyph unicode="F" horiz-adv-x="558" d="M93 0V712H521V658H153V388H501V335H153V0H93Z" />
<glyph unicode="G" horiz-adv-x="727" d="M398 -8Q294 -8 220 35T105 160T65 357Q65 472 105 553T218 677T393 720Q466 720 527 697T635 627L609 578Q557 624 506 644T392 665Q266 665 198 585T129 357Q129 206 198 126T399 46Q455 46 508 56T601 85L586 44V312H398V365H642V40Q616
26 577 15T491 -2T398 -8Z" />
<glyph unicode="H" horiz-adv-x="762" d="M608 0V712H670V0H608ZM93 0V712H154V0H93ZM128 335V388H641V335H128Z" />
<glyph unicode="I" horiz-adv-x="246" d="M93 0V712H154V0H93Z" />
<glyph unicode="J" horiz-adv-x="314" d="M-7 -178V-122Q55 -134 92 -128T145 -91T161 3V712H222V1Q222 -80 199 -124T126 -180T-7 -178Z" />
<glyph unicode="K" horiz-adv-x="619" d="M537 0L131 361L518 712H600L191 341L193 385L621 0H537ZM93 0V712H154V0H93Z" />
<glyph unicode="L" horiz-adv-x="538" d="M93 0V712H154V54H522V0H93Z" />
<glyph unicode="M" horiz-adv-x="848" d="M93 0V712H144L442 35H409L704 712H756V0H698V639L727 636L448 0H402L118 637L150 639L151 0H93Z" />
<glyph unicode="N" horiz-adv-x="742" d="M93 0V712H141L615 74L592 72V712H650V0H602L128 637L150 640V0H93Z" />
<glyph unicode="O" horiz-adv-x="765" d="M383 -8Q284 -8 213 36T104 161T65 356Q65 469 103 550T213 676T383 720Q481 720 552 676T662 551T700 357Q700 244 662 162T552 36T383 -8ZM382 47Q502 47 568 128T635 357Q635 505 569 585T382 665Q262 665 196 585T129
357Q129 210 195 129T382 47Z" />
<glyph unicode="P" horiz-adv-x="644" d="M93 0V712H366Q473 712 534 660T595 517Q595 426 534 373T366 320H154V0H93ZM154 374H362Q447 374 489 411T532 517Q532 585 490 622T362 659H154V374Z" />
<glyph unicode="Q" horiz-adv-x="765" d="M574 -191Q534 -160 493 -109T420 -4L484 15Q511 -36 545 -75T617 -147L574 -191ZM382 -8Q284 -8 214 36T104 161T65 356Q65 469 103 550T212 676T382 720Q481 720 552 676T662 551T700 357Q700 244 662 162T552 36T382
-8ZM382 47Q502 47 568 128T635 357Q635 505 569 585T382 665Q262 665 196 585T129 357Q129 210 195 129T382 47Z" />
<glyph unicode="R" horiz-adv-x="688" d="M93 0V712H366Q478 712 539 662T600 517Q600 426 539 375T366 324L437 337Q476 337 504 316T549 247L640 0H575L488 237Q469 287 438 302T353 318H153V0H93ZM154 371H363Q451 371 494 408T538 517Q538 588 495 623T363
659H154V371Z" />
<glyph unicode="S" horiz-adv-x="613" d="M312 -8Q257 -8 210 2T124 32T50 85L76 134Q129 87 183 67T313 47Q403 47 453 84T503 188Q503 230 477 254T409 292T317 318Q270 328 225 341T143 376T85 432T63 519Q63 579 93 624T180 695T315 720Q363 720 407 710T489
678T557 627L531 578Q481 623 429 644T315 665Q225 665 175 627T125 519Q125 476 148 450T210 408T297 381Q345 370 392 358T479 326T542 274T566 188Q566 129 535 85T447 17T312 -8Z" />
<glyph unicode="T" horiz-adv-x="596" d="M267 0V658H12V712H584V658H329V0H267Z" />
<glyph unicode="U" horiz-adv-x="726" d="M364 -8Q228 -8 158 63T88 274V712H148V267Q148 157 202 102T364 47Q469 47 523 102T578 267V712H639V274Q639 136 569 64T364 -8Z" />
<glyph unicode="V" horiz-adv-x="687" d="M315 0L7 712H72L359 44H329L616 712H681L372 0H315Z" />
<glyph unicode="W" horiz-adv-x="1108" d="M286 0L38 712H100L328 44H298L530 712L579 711L809 44H779L1008 712H1070L822 0H768L543 644H564L339 0H286Z" />
<glyph unicode="X" horiz-adv-x="644" d="M90 0H16L287 366L323 412L542 712H614L358 365L322 318L90 0ZM555 0L322 318L287 366L31 712H104L323 412L358 365L628 0H555Z" />
<glyph unicode="Y" horiz-adv-x="597" d="M267 0V320L282 272L-8 712H64L311 330H287L534 712H604L315 272L329 320V0H267Z" />
<glyph unicode="Z" horiz-adv-x="590" d="M43 0V46L498 700L496 658H43V712H542V667L88 12L90 54H552V0H43Z" />
<glyph unicode="[" horiz-adv-x="300" d="M112 -182V712H294V662H173V-131H294V-182H112Z" />
<glyph unicode="\" horiz-adv-x="272" d="M233 -53L-22 747H38L294 -53H233Z" />
<glyph unicode="]" horiz-adv-x="300" d="M189 -182H6V-131H127V662H6V712H189V-182Z" />
<glyph unicode="^" horiz-adv-x="600" d="M325 634L553 141H498L285 604H315L102 141H48L275 634H325Z" />
<glyph unicode="_" horiz-adv-x="505" d="M6 -43V0H499V-43H6Z" />
<glyph unicode="`" horiz-adv-x="300" d="M128 556L-4 759H74L175 556H128Z" />
<glyph unicode="a" horiz-adv-x="591" d="M274 -7Q207 -7 157 25T79 114T51 251Q51 330 79 389T157 480T274 513Q345 513 393 478T459 377L447 369V501H508V0H447V137L459 130Q442 64 394 29T274 -7ZM282 47Q362 47 404 101T447 253Q447 353 404 406T282 459Q203
459 159 405T114 251Q114 153 158 100T282 47Z" />
<glyph unicode="b" horiz-adv-x="591" d="M83 0V736H144V369L133 377Q150 442 198 477T317 513Q384 513 434 482T512 392T541 255Q541 176 513 117T434 26T317 -7Q247 -7 199 28T133 130L144 138V0H83ZM310 47Q388 47 432 102T476 255Q476 353 432 406T310 459Q230
459 187 406T144 253Q144 155 187 101T310 47Z" />
<glyph unicode="c" horiz-adv-x="491" d="M286 -7Q214 -7 162 25T80 116T51 251Q51 329 80 388T163 480T288 513Q338 513 384 496T462 447L438 399Q399 430 364 445T290 460Q210 460 163 405T115 251Q115 154 162 101T290 47Q328 47 363 61T438 107L462 60Q430
29 383 11T286 -7Z" />
<glyph unicode="d" horiz-adv-x="591" d="M508 0H447V138L459 130Q442 64 394 29T274 -7Q208 -7 158 25T79 117T51 255Q51 334 78 392T156 481T274 513Q345 513 393 478T459 377L447 369V736H508V0ZM282 47Q361 47 404 101T447 253Q447 352 405 405T282 459Q203
459 159 406T114 255Q114 157 158 102T282 47Z" />
<glyph unicode="e" horiz-adv-x="542" d="M485 62Q453 30 402 12T297 -7Q221 -7 166 24T81 113T51 252Q51 330 80 389T163 480T285 513Q350 513 397 485T469 402T494 271V258H105L104 304H461L438 265Q441 361 402 412T285 463Q206 463 161 408T115 255Q115 153
161 100T296 47Q342 47 382 62T462 109L485 62Z" />
<glyph unicode="f" horiz-adv-x="324" d="M8 452V501H296V452H8ZM308 677Q280 685 255 685Q230 685 211 677T180 645T168 580V0H107V591Q107 668 144 704T245 740Q261 740 276 738T308 732V677Z" />
<glyph unicode="g" horiz-adv-x="595" d="M299 -223Q187 -223 104 -169L116 -116Q163 -144 204 -156T300 -169Q375 -169 413 -128T452 -8V134L463 153Q451 109 426 79T363 32T276 15Q209 15 159 46T80 134T51 264Q51 339 79 395T158 482T276 513Q349 513 397 478T463
377L451 393V501H512V-2Q512 -112 458 -167T299 -223ZM284 70Q362 70 406 122T451 264Q451 355 407 407T284 459Q205 459 160 408T114 264Q114 172 159 121T284 70Z" />
<glyph unicode="h" horiz-adv-x="577" d="M83 0V736H144V400L132 386Q151 449 201 481T316 513Q497 513 497 319V0H436V315Q436 390 406 425T310 460Q235 460 190 414T144 290V0H83Z" />
<glyph unicode="i" horiz-adv-x="228" d="M83 0V501H144V0H83ZM330 708H411V630H330V708Z" />
<glyph unicode="j" horiz-adv-x="228" d="M-52 -156Q-37 -160 -26 -162T-3 -164Q21 -164 40 -156T71 -125T83 -59V501H144V-70Q144 -148 107 -183T8 -219Q-6 -219 -21 -217T-52 -211V-156ZM329 708H410V630H329V708Z" />
<glyph unicode="k" horiz-adv-x="498" d="M419 0L131 256L394 501H475L186 237L188 282L502 0H419ZM83 0V736H144V0H83Z" />
<glyph unicode="l" horiz-adv-x="228" d="M83 0V736H144V0H83Z" />
<glyph unicode="m" horiz-adv-x="869" d="M83 0V362Q83 396 82 431T75 501H133L142 396L132 386Q149 448 194 480T300 513Q374 513 414 477T466 367L442 376Q455 439 504 476T623 513Q705 513 747 465T789 319V0H728V315Q728 390 701 425T615 460Q547 460 507
414T467 289V0H406V315Q406 390 379 425T292 460Q223 460 184 414T144 289V0H83Z" />
<glyph unicode="n" horiz-adv-x="577" d="M83 0V362Q83 396 82 431T75 501H133L142 396L132 386Q151 449 201 481T316 513Q497 513 497 319V0H436V315Q436 390 406 425T310 460Q235 460 190 414T144 290V0H83Z" />
<glyph unicode="o" horiz-adv-x="562" d="M281 -7Q212 -7 161 25T80 115T51 254Q51 332 80 390T160 481T281 513Q351 513 402 481T482 391T511 254Q511 174 483 116T403 25T281 -7ZM281 47Q361 47 404 100T448 253Q448 351 404 405T282 459Q203 459 159 405T114
253Q114 153 157 100T281 47Z" />
<glyph unicode="p" horiz-adv-x="591" d="M83 -216V362Q83 396 82 431T75 501H133L142 396L133 377Q150 443 198 478T317 513Q383 513 433 481T512 389T541 251Q541 172 513 115T434 25T317 -7Q247 -7 199 28T133 130L144 138V-216H83ZM310 47Q388 47 432 100T476
251Q476 350 432 404T310 459Q230 459 187 406T144 253Q144 155 187 101T310 47Z" />
<glyph unicode="q" horiz-adv-x="591" d="M508 -216H447V138L459 130Q442 64 394 29T274 -7Q207 -7 157 25T79 114T51 251Q51 330 79 389T157 480T274 513Q345 513 393 478T459 377L449 396L459 501H515Q511 467 510 432T508 362V-216ZM282 47Q362 47 404 101T447
253Q447 353 404 406T282 459Q203 459 159 405T114 251Q114 153 158 100T282 47Z" />
<glyph unicode="r" horiz-adv-x="349" d="M83 0V362Q83 396 82 431T75 501H133L143 381L133 383Q148 447 194 480T299 513Q312 513 322 512T343 509L341 453Q322 458 294 458Q239 458 206 433T159 371T144 294V0H83Z" />
<glyph unicode="s" horiz-adv-x="494" d="M246 -7Q124 -7 53 60L76 107Q116 75 156 61T249 46Q312 46 344 67T376 130Q376 163 355 183T284 215L199 235Q139 248 105 284T70 368Q70 412 93 444T157 495T255 513Q307 513 353 496T429 447L406 400Q371 430 335 445T255
460Q197 460 165 437T133 374Q133 339 153 319T217 287L302 266Q371 251 404 218T437 133Q437 70 386 32T246 -7Z" />
<glyph unicode="t" horiz-adv-x="337" d="M8 452V501H316V452H8ZM313 57V2Q298 -2 283 -4T248 -6Q185 -6 146 30T107 142V634L168 657V154Q168 112 179 89T211 57T258 48Q274 48 286 50T313 57Z" />
<glyph unicode="u" horiz-adv-x="569" d="M259 -7Q170 -7 125 42T80 187V501H141V190Q141 116 171 82T263 47Q337 47 381 93T425 217V501H486V0H427V111L438 120Q418 57 370 25T259 -7Z" />
<glyph unicode="v" horiz-adv-x="525" d="M231 0L18 501H83L275 36H253L447 501H508L293 0H231Z" />
<glyph unicode="w" horiz-adv-x="863" d="M215 0L35 501H100L260 35H234L403 501H464L628 35H602L767 501H829L647 0H584L413 474H450L279 0H215Z" />
<glyph unicode="x" horiz-adv-x="528" d="M433 0L264 210L228 258L32 501H108L264 305L302 258L507 0H433ZM97 0H21L228 258L264 305L420 501H497L302 258L264 210L97 0Z" />
<glyph unicode="y" horiz-adv-x="525" d="M53 -227L41 -179Q87 -168 119 -153T172 -114T211 -50L241 21L253 36L447 501H508L273 -52Q247 -110 215 -145T142 -199T53 -227ZM241 -23L18 501H83L275 36L241 -23Z" />
<glyph unicode="z" horiz-adv-x="515" d="M51 0V42L411 485L425 452H64V501H458V455L101 16L88 50H469V0H51Z" />
<glyph unicode="{" horiz-adv-x="337" d="M274 -182Q212 -182 181 -150T149 -57V156Q149 198 133 218T75 247L52 252V279L75 284Q117 292 133 312T149 375V587Q149 649 184 680T274 712H331V662H276Q245 662 228 642T210 584V368Q210 331 197 308T162 275T121
264V268Q141 268 162 257T196 223T210 164V-54Q210 -92 227 -111T276 -131H331V-182H274Z" />
<glyph unicode="|" horiz-adv-x="256" d="M98 -182V712H158V-182H98Z" />
<glyph unicode="}" horiz-adv-x="338" d="M64 -182H6V-131H62Q92 -131 109 -112T127 -54V164Q127 200 141 223T175 257T216 268V264Q196 264 176 274T141 308T127 368V584Q127 622 110 642T62 662H6V712H64Q118 712 153 681T189 587V375Q189 333 205 313T263 284L286
279V252L263 247Q221 239 205 219T189 156V-57Q189 -118 157 -150T64 -182Z" />
<glyph unicode="~" horiz-adv-x="600" d="M504 337L546 316Q526 272 495 246T418 220Q384 220 352 232T291 261T236 291T185 304Q149 304 129 284T96 236L54 257Q73 302 104 327T182 352Q216 352 248 340T309 311T364 282T415 269Q451 269 471 289T504 337Z" />
<glyph unicode="&#xa0;" horiz-adv-x="255" />
<glyph unicode="&#xa1;" horiz-adv-x="222" d="M92 315H130L149 -182H73L92 315ZM69 403V490H154V403H69Z" />
<glyph unicode="&#xa2;" horiz-adv-x="600" d="M331 -7Q261 -7 209 25T126 116T96 251Q96 329 126 388T209 480T334 513Q385 513 431 496T507 447L484 399Q445 430 410 445T336 460Q254 460 207 404T160 251Q160 155 206 101T335 47Q374 47 409 61T484 107L507
60Q475 29 429 11T331 -7ZM298 -119V625H353V-119H298Z" />
<glyph unicode="&#xa3;" horiz-adv-x="600" d="M47 332V381H403V332H47ZM215 523V215Q215 166 206 133T175 78T117 42V53H560V0H47V43Q104 69 129 104T154 194V528Q154 588 176 631T241 697T342 720Q404 720 461 696T564 627L537 578Q495 620 445 643T343 666Q281
666 248 629T215 523Z" />
<glyph unicode="&#xa4;" horiz-adv-x="600" d="M301 -3Q234 -3 179 31T91 121T58 247Q58 317 90 373T178 464T301 498Q368 498 423 464T510 374T543 247Q543 178 511 122T423 31T301 -3ZM93 -3L55 35L138 122L174 79L93 -3ZM504 -3L426 76L467 114L542 35L504
-3ZM300 50Q351 50 393 76T460 148T485 247Q485 302 460 346T393 417T300 444Q249 444 207 418T140 347T115 247Q115 193 140 148T207 77T300 50ZM131 380L55 459L94 499L168 421L131 380ZM470 384L431 425L503 499L543 459L470 384Z" />
<glyph unicode="&#xa5;" horiz-adv-x="600" d="M269 0V370L284 320L-3 712H69L309 379H292L531 712H603L317 320L331 370V0H269ZM72 182V231H528V182H72ZM72 334V384H528V334H72Z" />
<glyph unicode="&#xa6;" horiz-adv-x="256" d="M98 375V712H158V375H98ZM98 -182V156H158V-182H98Z" />
<glyph unicode="&#xa7;" horiz-adv-x="530" d="M406 44L382 87Q403 106 414 131T425 186Q425 222 400 251T311 314L228 358Q174 387 143 414T99 472T85 547Q85 625 136 672T274 719Q320 719 365 701T440 653L416 606Q378 637 343 651T273 666Q212 666 179 636T146
548Q146 503 168 474T244 416L332 371Q415 328 450 287T486 186Q486 145 464 106T406 44ZM258 -189Q200 -189 153 -173T66 -123L89 -76Q133 -108 171 -121T258 -135Q318 -135 351 -105T384 -18Q384 28 362 58T285 115L198 160Q114 201 79 243T44 344Q44 385 64
423T115 483L145 440Q125 422 115 398T105 344Q105 309 130 280T219 216L301 173Q356 143 387 116T432 57T445 -17Q445 -95 395 -142T258 -189Z" />
<glyph unicode="&#xa8;" horiz-adv-x="300" d="M198 694H273V621H198V694ZM30 694H105V621H30V694Z" />
<glyph unicode="&#xa9;" horiz-adv-x="823" d="M412 -5Q336 -5 270 22T155 99T79 215T51 357Q51 434 78 499T155 613T269 689T412 717Q489 717 554 690T669 614T745 500T773 357Q773 281 746 215T669 100T555 23T412 -5ZM412 35Q480 35 538 59T639 127T706 230T730
357Q730 425 706 483T639 585T538 653T412 677Q344 677 286 653T184 586T117 484T93 357Q93 289 117 230T184 128T285 60T412 35ZM418 138Q326 138 272 197T217 357Q217 424 241 472T311 547T418 574Q460 574 500 559T568 517L546 475Q514 500 484 512T420 524Q352
524 316 481T279 357Q279 275 315 232T420 188Q454 188 484 200T546 237L568 195Q540 168 500 153T418 138Z" />
<glyph unicode="&#xaa;" horiz-adv-x="330" d="M139 413Q108 413 85 425T48 457T34 501Q34 550 73 569T212 588H235V555H216Q162 555 136 550T100 534T91 506Q91 485 106 470T147 455Q181 455 204 477T227 538V607Q227 643 212 657T166 672Q138 672 112 663T66
640L47 682Q70 697 102 707T167 717Q221 717 252 690T283 599V418H227V489L234 481Q225 449 199 431T139 413Z" />
<glyph unicode="&#xab;" horiz-adv-x="421" d="M159 89L28 267L161 447H221L93 268L218 89H159ZM330 89L199 267L332 447H392L264 268L389 89H330Z" />
<glyph unicode="&#xac;" horiz-adv-x="600" d="M546 418V156H498V368H54V418H546Z" />
<glyph unicode="&#xad;" horiz-adv-x="424" d="M75 242V294H349V242H75Z" />
<glyph unicode="&#xae;" horiz-adv-x="823" d="M412 -5Q336 -5 270 22T155 99T79 215T51 357Q51 434 78 499T155 613T269 689T412 717Q489 717 554 690T669 614T745 500T773 357Q773 281 746 215T669 100T555 23T412 -5ZM412 35Q480 35 538 59T639 127T706 230T730
357Q730 425 706 483T639 585T538 653T412 677Q344 677 286 653T184 586T117 484T93 357Q93 289 117 230T184 128T285 60T412 35ZM268 143V569H439Q507 569 544 537T582 445Q582 388 545 356T439 323L440 329Q468 329 488 318T524 279L608 143H543L460 279Q446
302 430 310T386 319H325V143H268ZM325 367H432Q480 367 502 385T524 444Q524 484 502 502T432 521H325V367Z" />
<glyph unicode="&#xaf;" horiz-adv-x="300" d="M2 632V684H301V632H2Z" />
<glyph unicode="&#xb0;" horiz-adv-x="368" d="M185 427Q143 427 110 446T58 498T39 573Q39 614 58 646T110 698T185 717Q225 717 257 698T309 647T328 572Q328 531 309 498T258 446T185 427ZM184 474Q225 474 252 501T279 573Q279 615 252 643T184 671Q142 671
116 643T90 573Q90 529 116 502T184 474Z" />
<glyph unicode="&#xb1;" horiz-adv-x="600" d="M546 351V301H54V351H546ZM275 533H325V119H275V533ZM546 51V0H54V51H546Z" />
<glyph unicode="&#xb2;" horiz-adv-x="380" d="M55 285V328L202 491Q230 521 244 547T258 601Q258 635 239 651T186 668Q159 668 127 656T66 619L39 661Q67 684 106 700T189 716Q249 716 282 685T316 603Q316 567 299 533T244 458L105 308L101 333H333V285H55Z" />
<glyph unicode="&#xb3;" horiz-adv-x="380" d="M184 282Q140 282 101 298T34 337L61 378Q90 356 121 343T182 330Q221 330 245 347T269 404Q269 444 244 461T175 478H123V525H165Q208 525 233 544T258 601Q258 635 238 651T186 668Q156 668 126 656T66 619L39
661Q67 684 106 700T188 716Q249 716 282 685T315 605Q315 564 293 538T238 501L237 507Q277 499 300 473T324 401Q324 363 307 337T258 296T184 282Z" />
<glyph unicode="&#xb4;" horiz-adv-x="300" d="M175 556H128L229 759H307L175 556Z" />
<glyph unicode="&#xb5;" horiz-adv-x="569" d="M486 501V0H427V111L438 120Q418 57 370 25T259 -7Q210 -7 177 7T121 52L141 79V-216H80V501H141V190Q141 116 171 82T263 47Q337 47 381 93T425 217V501H486Z" />
<glyph unicode="&#xb6;" horiz-adv-x="574" d="M482 712V-182H423V659H301V-182H242V326Q183 326 140 350T74 419T50 519Q50 575 73 618T140 687T244 712H482Z" />
<glyph unicode="&#xb7;" horiz-adv-x="222" d="M69 311H154V225H69V311Z" />
<glyph unicode="&#xb8;" horiz-adv-x="300" d="M158 -193Q138 -193 114 -189T70 -174L84 -135Q104 -143 122 -146T159 -149Q189 -149 203 -139T217 -111Q217 -82 182 -82Q168 -82 156 -85T133 -92L113 -77L124 20H173L166 -52H145Q158 -46 170 -44T194 -41Q220
-41 244 -57T269 -111Q269 -146 240 -169T158 -193Z" />
<glyph unicode="&#xb9;" horiz-adv-x="380" d="M188 311V675L214 662L117 600V661L199 712H243V311H188ZM112 285V333H318V285H112Z" />
<glyph unicode="&#xba;" horiz-adv-x="336" d="M167 413Q123 413 92 432T42 485T24 566Q24 612 42 646T91 698T167 717Q212 717 244 699T294 646T312 566Q312 519 294 485T244 432T167 413ZM167 459Q210 459 232 486T254 566Q254 615 232 643T167 671Q125 671
104 643T83 566Q83 514 104 487T167 459Z" />
<glyph unicode="&#xbb;" horiz-adv-x="421" d="M91 89H32L158 268L29 447H90L222 267L91 89ZM262 89H203L329 268L200 447H261L393 267L262 89Z" />
<glyph unicode="&#xbc;" horiz-adv-x="927" d="M188 311V675L214 662L117 600V661L199 712H243V311H188ZM112 285V333H318V285H112ZM277 -23L228 4L652 735L699 708L277 -23ZM780 0V358H797L625 111L626 136H901V90H585V132L790 427H838V0H780Z" />
<glyph unicode="&#xbd;" horiz-adv-x="927" d="M188 311V675L214 662L117 600V661L199 712H243V311H188ZM112 285V333H318V285H112ZM277 -23L228 4L652 735L699 708L277 -23ZM602 0V43L749 206Q777 236 791 262T805 316Q805 350 786 366T733 383Q706 383 674 371T613
334L586 376Q614 399 653 415T736 431Q796 431 829 400T863 318Q863 282 846 248T791 173L652 23L648 48H880V0H602Z" />
<glyph unicode="&#xbe;" horiz-adv-x="927" d="M184 282Q140 282 101 298T34 337L61 378Q90 356 121 343T182 330Q221 330 245 347T269 404Q269 444 244 461T175 478H123V525H165Q208 525 233 544T258 601Q258 635 238 651T186 668Q156 668 126 656T66 619L39
661Q67 684 106 700T188 716Q249 716 282 685T315 605Q315 564 293 538T238 501L237 507Q277 499 300 473T324 401Q324 363 307 337T258 296T184 282ZM277 -23L228 4L652 735L699 708L277 -23ZM780 0V358H797L625 111L626 136H901V90H585V132L790 427H838V0H780Z"
/>
<glyph unicode="&#xbf;" horiz-adv-x="440" d="M213 -189Q159 -189 117 -170T52 -117T28 -37Q28 9 45 42T90 102T144 156T192 218T216 302L218 316H256V298Q256 244 240 207T198 142T149 89T109 34T92 -35Q92 -79 125 -106T214 -134Q249 -134 283 -124T352 -93V-154Q319
-172 283 -180T213 -189ZM193 403V490H279V403H193Z" />
<glyph unicode="&#xc0;" horiz-adv-x="727" d="M91 0H26L336 712H392L701 0H637L350 670H378L91 0ZM155 190L175 244H554L575 190H155ZM340 773L211 924H285L387 773H340Z" />
<glyph unicode="&#xc1;" horiz-adv-x="727" d="M91 0H26L336 712H392L701 0H637L350 670H378L91 0ZM155 190L175 244H554L575 190H155ZM387 773H340L442 924H516L387 773Z" />
<glyph unicode="&#xc2;" horiz-adv-x="727" d="M91 0H26L336 712H392L701 0H637L350 670H378L91 0ZM155 190L175 244H554L575 190H155ZM287 773H224L341 924H386L503 773H440L364 882L287 773Z" />
<glyph unicode="&#xc3;" horiz-adv-x="727" d="M91 0H26L336 712H392L701 0H637L350 670H378L91 0ZM155 190L175 244H554L575 190H155ZM205 798Q205 848 227 876T289 905Q318 905 344 890T393 860T435 845Q459 845 471 862T483 902H522Q522 852 500 824T438 795Q409
795 383 810T334 839T292 854Q268 854 256 837T244 798H205Z" />
<glyph unicode="&#xc4;" horiz-adv-x="727" d="M91 0H26L336 712H392L701 0H637L350 670H378L91 0ZM155 190L175 244H554L575 190H155ZM410 886H485V813H410V886ZM242 886H317V813H242V886Z" />
<glyph unicode="&#xc5;" horiz-adv-x="727" d="M365 682Q322 682 293 710T264 780Q264 820 293 848T364 877Q405 877 434 849T464 779Q464 738 435 710T365 682ZM364 727Q386 727 400 742T414 779Q414 801 400 816T365 831Q342 831 328 816T314 780Q314 757 328
742T364 727ZM91 0H26L336 712H392L701 0H637L350 670H378L91 0ZM155 190L175 244H554L575 190H155Z" />
<glyph unicode="&#xc6;" horiz-adv-x="998" d="M6 0L435 712H945V658H443L469 668L73 0H6ZM146 190L166 244H565L576 190H146ZM562 0L498 685H553L613 54H945V0H562ZM564 334V388H925V334H564Z" />
<glyph unicode="&#xc7;" horiz-adv-x="684" d="M388 -8Q288 -8 216 35T105 161T65 357Q65 471 104 552T216 676T388 720Q462 720 523 697T630 627L605 578Q553 624 502 644T388 664Q265 664 197 584T129 357Q129 209 197 129T388 48Q450 48 501 68T605 134L630
85Q585 38 524 15T388 -8ZM389 -193Q369 -193 345 -189T301 -174L315 -135Q335 -143 353 -146T390 -149Q420 -149 434 -139T448 -111Q448 -82 413 -82Q399 -82 387 -85T364 -92L344 -77L355 20H404L397 -52H376Q389 -46 401 -44T425 -41Q451 -41 475 -57T500 -111Q500
-146 471 -169T389 -193Z" />
<glyph unicode="&#xc8;" horiz-adv-x="585" d="M93 0V712H531V659H154V388H511V334H154V53H531V0H93ZM301 773L172 924H246L348 773H301Z" />
<glyph unicode="&#xc9;" horiz-adv-x="585" d="M93 0V712H531V659H154V388H511V334H154V53H531V0H93ZM348 773H301L403 924H477L348 773Z" />
<glyph unicode="&#xca;" horiz-adv-x="585" d="M93 0V712H531V659H154V388H511V334H154V53H531V0H93ZM248 773H185L302 924H347L464 773H401L325 882L248 773Z" />
<glyph unicode="&#xcb;" horiz-adv-x="585" d="M93 0V712H531V659H154V388H511V334H154V53H531V0H93ZM371 886H446V813H371V886ZM203 886H278V813H203V886Z" />
<glyph unicode="&#xcc;" horiz-adv-x="246" d="M93 0V712H154V0H93ZM355 773L226 924H300L402 773H355Z" />
<glyph unicode="&#xcd;" horiz-adv-x="246" d="M93 0V712H154V0H93ZM402 773H355L457 924H531L402 773Z" />
<glyph unicode="&#xce;" horiz-adv-x="246" d="M93 0V712H154V0H93ZM302 773H239L356 924H401L518 773H455L379 882L302 773Z" />
<glyph unicode="&#xcf;" horiz-adv-x="246" d="M93 0V712H154V0H93ZM425 886H500V813H425V886ZM257 886H332V813H257V886Z" />
<glyph unicode="&#xd0;" horiz-adv-x="748" d="M6 336V387H359V336H6ZM101 0V712H330Q442 712 521 671T642 551T683 357Q683 242 642 163T521 42T330 0H101ZM163 54H327Q472 54 545 130T618 357Q618 658 327 658H163V54Z" />
<glyph unicode="&#xd1;" horiz-adv-x="742" d="M93 0V712H141L615 74L592 72V712H650V0H602L128 637L150 640V0H93ZM212 798Q212 848 234 876T296 905Q325 905 351 890T400 860T442 845Q466 845 478 862T490 902H529Q529 852 507 824T445 795Q416 795 390 810T341
839T299 854Q275 854 263 837T251 798H212Z" />
<glyph unicode="&#xd2;" horiz-adv-x="765" d="M383 -8Q284 -8 213 36T104 161T65 356Q65 469 103 550T213 676T383 720Q481 720 552 676T662 551T700 357Q700 244 662 162T552 36T383 -8ZM382 47Q502 47 568 128T635 357Q635 505 569 585T382 665Q262 665 196
585T129 357Q129 210 195 129T382 47ZM358 773L229 924H303L405 773H358Z" />
<glyph unicode="&#xd3;" horiz-adv-x="765" d="M383 -8Q284 -8 213 36T104 161T65 356Q65 469 103 550T213 676T383 720Q481 720 552 676T662 551T700 357Q700 244 662 162T552 36T383 -8ZM382 47Q502 47 568 128T635 357Q635 505 569 585T382 665Q262 665 196
585T129 357Q129 210 195 129T382 47ZM405 773H358L460 924H534L405 773Z" />
<glyph unicode="&#xd4;" horiz-adv-x="765" d="M383 -8Q284 -8 213 36T104 161T65 356Q65 469 103 550T213 676T383 720Q481 720 552 676T662 551T700 357Q700 244 662 162T552 36T383 -8ZM382 47Q502 47 568 128T635 357Q635 505 569 585T382 665Q262 665 196
585T129 357Q129 210 195 129T382 47ZM305 773H242L359 924H404L521 773H458L382 882L305 773Z" />
<glyph unicode="&#xd5;" horiz-adv-x="765" d="M383 -8Q284 -8 213 36T104 161T65 356Q65 469 103 550T213 676T383 720Q481 720 552 676T662 551T700 357Q700 244 662 162T552 36T383 -8ZM382 47Q502 47 568 128T635 357Q635 505 569 585T382 665Q262 665 196
585T129 357Q129 210 195 129T382 47ZM223 798Q223 848 245 876T307 905Q336 905 362 890T411 860T453 845Q477 845 489 862T501 902H540Q540 852 518 824T456 795Q427 795 401 810T352 839T310 854Q286 854 274 837T262 798H223Z" />
<glyph unicode="&#xd6;" horiz-adv-x="765" d="M383 -8Q284 -8 213 36T104 161T65 356Q65 469 103 550T213 676T383 720Q481 720 552 676T662 551T700 357Q700 244 662 162T552 36T383 -8ZM382 47Q502 47 568 128T635 357Q635 505 569 585T382 665Q262 665 196
585T129 357Q129 210 195 129T382 47ZM428 886H503V813H428V886ZM260 886H335V813H260V886Z" />
<glyph unicode="&#xd7;" horiz-adv-x="600" d="M500 523L536 488L100 51L64 86L500 523ZM100 523L536 86L500 51L64 488L100 523Z" />
<glyph unicode="&#xd8;" horiz-adv-x="765" d="M382 -8Q284 -8 214 36T104 161T65 356Q65 469 103 550T212 676T382 720Q481 720 552 676T662 551T700 357Q700 244 662 162T552 36T382 -8ZM181 -41L136 -16L585 753L629 728L181 -41ZM382 47Q502 47 568 128T635
357Q635 505 569 585T382 665Q262 665 196 585T129 357Q129 210 195 129T382 47Z" />
<glyph unicode="&#xd9;" horiz-adv-x="726" d="M364 -8Q228 -8 158 63T88 274V712H148V267Q148 157 202 102T364 47Q469 47 523 102T578 267V712H639V274Q639 136 569 64T364 -8ZM340 773L211 924H285L387 773H340Z" />
<glyph unicode="&#xda;" horiz-adv-x="726" d="M364 -8Q228 -8 158 63T88 274V712H148V267Q148 157 202 102T364 47Q469 47 523 102T578 267V712H639V274Q639 136 569 64T364 -8ZM387 773H340L442 924H516L387 773Z" />
<glyph unicode="&#xdb;" horiz-adv-x="726" d="M364 -8Q228 -8 158 63T88 274V712H148V267Q148 157 202 102T364 47Q469 47 523 102T578 267V712H639V274Q639 136 569 64T364 -8ZM287 773H224L341 924H386L503 773H440L364 882L287 773Z" />
<glyph unicode="&#xdc;" horiz-adv-x="726" d="M364 -8Q228 -8 158 63T88 274V712H148V267Q148 157 202 102T364 47Q469 47 523 102T578 267V712H639V274Q639 136 569 64T364 -8ZM410 886H485V813H410V886ZM242 886H317V813H242V886Z" />
<glyph unicode="&#xdd;" horiz-adv-x="597" d="M267 0V320L282 272L-8 712H64L311 330H287L534 712H604L315 272L329 320V0H267ZM321 773H274L376 924H450L321 773Z" />
<glyph unicode="&#xde;" horiz-adv-x="644" d="M142 173V226H366Q451 226 491 260T532 364Q532 433 492 465T366 498H142V551H371Q478 551 536 503T595 364Q595 273 536 223T371 173H142ZM93 0V712H154V0H93Z" />
<glyph unicode="&#xdf;" horiz-adv-x="616" d="M83 0V503Q83 619 142 679T311 740Q396 740 444 699T493 581Q493 535 477 496T421 424T314 364V376Q410 355 468 322T554 246T581 154Q581 104 559 68T497 13T400 -7Q346 -7 298 10T216 60L241 108Q283 75 321 61T400
46Q459 46 489 74T520 154Q520 192 497 224T418 285T263 341V389Q330 416 367 445T419 508T434 582Q434 633 403 660T311 688Q230 688 187 644T144 508V0H83Z" />
<glyph unicode="&#xe0;" horiz-adv-x="591" d="M274 -7Q207 -7 157 25T79 114T51 251Q51 330 79 389T157 480T274 513Q345 513 393 478T459 377L447 369V501H508V0H447V137L459 130Q442 64 394 29T274 -7ZM282 47Q362 47 404 101T447 253Q447 353 404 406T282
459Q203 459 159 405T114 251Q114 153 158 100T282 47ZM273 567L141 770H219L320 567H273Z" />
<glyph unicode="&#xe1;" horiz-adv-x="591" d="M274 -7Q207 -7 157 25T79 114T51 251Q51 330 79 389T157 480T274 513Q345 513 393 478T459 377L447 369V501H508V0H447V137L459 130Q442 64 394 29T274 -7ZM282 47Q362 47 404 101T447 253Q447 353 404 406T282
459Q203 459 159 405T114 251Q114 153 158 100T282 47ZM320 567H273L374 770H452L320 567Z" />
<glyph unicode="&#xe2;" horiz-adv-x="591" d="M274 -7Q207 -7 157 25T79 114T51 251Q51 330 79 389T157 480T274 513Q345 513 393 478T459 377L447 369V501H508V0H447V137L459 130Q442 64 394 29T274 -7ZM282 47Q362 47 404 101T447 253Q447 353 404 406T282
459Q203 459 159 405T114 251Q114 153 158 100T282 47ZM220 567H157L273 770H320L436 567H373L297 719L220 567Z" />
<glyph unicode="&#xe3;" horiz-adv-x="591" d="M274 -7Q207 -7 157 25T79 114T51 251Q51 330 79 389T157 480T274 513Q345 513 393 478T459 377L447 369V501H508V0H447V137L459 130Q442 64 394 29T274 -7ZM282 47Q362 47 404 101T447 253Q447 353 404 406T282
459Q203 459 159 405T114 251Q114 153 158 100T282 47ZM138 618Q138 667 160 695T222 724Q251 724 277 709T326 680T368 665Q392 665 404 682T416 721H455Q455 672 433 644T371 615Q342 615 316 630T267 660T225 675Q201 675 189 657T177 618H138Z" />
<glyph unicode="&#xe4;" horiz-adv-x="591" d="M274 -7Q207 -7 157 25T79 114T51 251Q51 330 79 389T157 480T274 513Q345 513 393 478T459 377L447 369V501H508V0H447V137L459 130Q442 64 394 29T274 -7ZM282 47Q362 47 404 101T447 253Q447 353 404 406T282
459Q203 459 159 405T114 251Q114 153 158 100T282 47ZM343 705H418V632H343V705ZM175 705H250V632H175V705Z" />
<glyph unicode="&#xe5;" horiz-adv-x="591" d="M274 -7Q207 -7 157 25T79 114T51 251Q51 330 79 389T157 480T274 513Q345 513 393 478T459 377L447 369V501H508V0H447V137L459 130Q442 64 394 29T274 -7ZM282 47Q362 47 404 101T447 253Q447 353 404 406T282
459Q203 459 159 405T114 251Q114 153 158 100T282 47ZM297 571Q255 571 227 598T198 668Q198 709 226 737T297 766Q324 766 346 753T382 718T395 668Q395 626 367 599T297 571ZM297 616Q319 616 333 631T347 668Q347 690 333 705T297 720Q274 720 260 705T246
669Q246 646 260 631T297 616Z" />
<glyph unicode="&#xe6;" horiz-adv-x="886" d="M645 -7Q538 -7 477 60T411 249Q409 327 436 386T515 479T632 513Q697 513 743 484T813 401T838 270V258H446V304H803L781 265Q784 361 745 412T632 463Q555 463 511 407T466 254Q466 154 512 101T645 47Q686 47
726 62T806 109L829 62Q797 31 747 12T645 -7ZM248 -7Q197 -7 156 12T92 67T67 148Q67 203 95 237T188 288T363 304H415V258H366Q275 258 225 248T153 214T132 152Q132 104 165 75T252 46Q297 46 331 67T384 127T404 215V324Q404 395 377 427T286 460Q241 460 199
447T111 405L88 452Q113 471 145 485T213 506T283 513Q373 513 418 467T463 329V178L442 179Q433 92 382 43T248 -7Z" />
<glyph unicode="&#xe7;" horiz-adv-x="491" d="M286 -7Q214 -7 162 25T80 116T51 251Q51 329 80 388T163 480T288 513Q338 513 384 496T462 447L438 399Q399 430 364 445T290 460Q210 460 163 405T115 251Q115 154 162 101T290 47Q328 47 363 61T438 107L462 60Q430
29 383 11T286 -7ZM285 -193Q265 -193 241 -189T197 -174L211 -135Q231 -143 249 -146T286 -149Q316 -149 330 -139T344 -111Q344 -82 309 -82Q295 -82 283 -85T260 -92L240 -77L251 20H300L293 -52H272Q285 -46 297 -44T321 -41Q347 -41 371 -57T396 -111Q396
-146 367 -169T285 -193Z" />
<glyph unicode="&#xe8;" horiz-adv-x="542" d="M485 62Q453 30 402 12T297 -7Q221 -7 166 24T81 113T51 252Q51 330 80 389T163 480T285 513Q350 513 397 485T469 402T494 271V258H105L104 304H461L438 265Q441 361 402 412T285 463Q206 463 161 408T115 255Q115
153 161 100T296 47Q342 47 382 62T462 109L485 62ZM261 567L129 770H207L308 567H261Z" />
<glyph unicode="&#xe9;" horiz-adv-x="542" d="M485 62Q453 30 402 12T297 -7Q221 -7 166 24T81 113T51 252Q51 330 80 389T163 480T285 513Q350 513 397 485T469 402T494 271V258H105L104 304H461L438 265Q441 361 402 412T285 463Q206 463 161 408T115 255Q115
153 161 100T296 47Q342 47 382 62T462 109L485 62ZM308 567H261L362 770H440L308 567Z" />
<glyph unicode="&#xea;" horiz-adv-x="542" d="M485 62Q453 30 402 12T297 -7Q221 -7 166 24T81 113T51 252Q51 330 80 389T163 480T285 513Q350 513 397 485T469 402T494 271V258H105L104 304H461L438 265Q441 361 402 412T285 463Q206 463 161 408T115 255Q115
153 161 100T296 47Q342 47 382 62T462 109L485 62ZM208 567H145L261 770H308L424 567H361L285 719L208 567Z" />
<glyph unicode="&#xeb;" horiz-adv-x="542" d="M485 62Q453 30 402 12T297 -7Q221 -7 166 24T81 113T51 252Q51 330 80 389T163 480T285 513Q350 513 397 485T469 402T494 271V258H105L104 304H461L438 265Q441 361 402 412T285 463Q206 463 161 408T115 255Q115
153 161 100T296 47Q342 47 382 62T462 109L485 62ZM331 705H406V632H331V705ZM163 705H238V632H163V705Z" />
<glyph unicode="&#xec;" horiz-adv-x="228" d="M83 0V501H144V0H83ZM347 567L215 770H293L394 567H347Z" />
<glyph unicode="&#xed;" horiz-adv-x="228" d="M83 0V501H144V0H83ZM394 567H347L448 770H526L394 567Z" />
<glyph unicode="&#xee;" horiz-adv-x="228" d="M83 0V501H144V0H83ZM294 567H231L347 770H394L510 567H447L371 719L294 567Z" />
<glyph unicode="&#xef;" horiz-adv-x="228" d="M83 0V501H144V0H83ZM417 705H492V632H417V705ZM249 705H324V632H249V705Z" />
<glyph unicode="&#xf0;" horiz-adv-x="566" d="M280 -7Q211 -7 160 22T80 105T51 231Q51 304 79 357T160 440T280 470Q363 470 414 427T483 300L456 302Q457 403 424 481T325 613T165 695L181 742Q264 718 326 678T430 581T493 453T515 294Q515 145 455 69T280
-7ZM281 47Q359 47 403 96T448 231Q448 319 404 367T281 416Q203 416 159 368T114 231Q114 143 157 95T281 47ZM187 530L171 574L497 701L512 657L187 530Z" />
<glyph unicode="&#xf1;" horiz-adv-x="577" d="M83 0V362Q83 396 82 431T75 501H133L142 396L132 386Q151 449 201 481T316 513Q497 513 497 319V0H436V315Q436 390 406 425T310 460Q235 460 190 414T144 290V0H83ZM131 618Q131 667 153 695T215 724Q244 724 270
709T319 680T361 665Q385 665 397 682T409 721H448Q448 672 426 644T364 615Q335 615 309 630T260 660T218 675Q194 675 182 657T170 618H131Z" />
<glyph unicode="&#xf2;" horiz-adv-x="562" d="M281 -7Q212 -7 161 25T80 115T51 254Q51 332 80 390T160 481T281 513Q351 513 402 481T482 391T511 254Q511 174 483 116T403 25T281 -7ZM281 47Q361 47 404 100T448 253Q448 351 404 405T282 459Q203 459 159 405T114
253Q114 153 157 100T281 47ZM257 567L125 770H203L304 567H257Z" />
<glyph unicode="&#xf3;" horiz-adv-x="562" d="M281 -7Q212 -7 161 25T80 115T51 254Q51 332 80 390T160 481T281 513Q351 513 402 481T482 391T511 254Q511 174 483 116T403 25T281 -7ZM281 47Q361 47 404 100T448 253Q448 351 404 405T282 459Q203 459 159 405T114
253Q114 153 157 100T281 47ZM304 567H257L358 770H436L304 567Z" />
<glyph unicode="&#xf4;" horiz-adv-x="562" d="M281 -7Q212 -7 161 25T80 115T51 254Q51 332 80 390T160 481T281 513Q351 513 402 481T482 391T511 254Q511 174 483 116T403 25T281 -7ZM281 47Q361 47 404 100T448 253Q448 351 404 405T282 459Q203 459 159 405T114
253Q114 153 157 100T281 47ZM204 567H141L257 770H304L420 567H357L281 719L204 567Z" />
<glyph unicode="&#xf5;" horiz-adv-x="562" d="M281 -7Q212 -7 161 25T80 115T51 254Q51 332 80 390T160 481T281 513Q351 513 402 481T482 391T511 254Q511 174 483 116T403 25T281 -7ZM281 47Q361 47 404 100T448 253Q448 351 404 405T282 459Q203 459 159 405T114
253Q114 153 157 100T281 47ZM122 618Q122 667 144 695T206 724Q235 724 261 709T310 680T352 665Q376 665 388 682T400 721H439Q439 672 417 644T355 615Q326 615 300 630T251 660T209 675Q185 675 173 657T161 618H122Z" />
<glyph unicode="&#xf6;" horiz-adv-x="562" d="M281 -7Q212 -7 161 25T80 115T51 254Q51 332 80 390T160 481T281 513Q351 513 402 481T482 391T511 254Q511 174 483 116T403 25T281 -7ZM281 47Q361 47 404 100T448 253Q448 351 404 405T282 459Q203 459 159 405T114
253Q114 153 157 100T281 47ZM327 705H402V632H327V705ZM159 705H234V632H159V705Z" />
<glyph unicode="&#xf7;" horiz-adv-x="600" d="M251 444V533H337V444H251ZM251 40V129H337V40H251ZM546 312V261H54V312H546Z" />
<glyph unicode="&#xf8;" horiz-adv-x="562" d="M281 -7Q212 -7 161 25T80 115T51 254Q51 332 80 390T160 481T281 513Q351 513 402 481T482 391T511 254Q511 174 483 116T403 25T281 -7ZM138 -42L96 -17L423 547L467 524L138 -42ZM281 47Q361 47 404 100T448 253Q448
351 404 405T281 460Q203 460 159 406T115 253Q115 153 157 100T281 47Z" />
<glyph unicode="&#xf9;" horiz-adv-x="569" d="M259 -7Q170 -7 125 42T80 187V501H141V190Q141 116 171 82T263 47Q337 47 381 93T425 217V501H486V0H427V111L438 120Q418 57 370 25T259 -7ZM261 567L129 770H207L308 567H261Z" />
<glyph unicode="&#xfa;" horiz-adv-x="569" d="M259 -7Q170 -7 125 42T80 187V501H141V190Q141 116 171 82T263 47Q337 47 381 93T425 217V501H486V0H427V111L438 120Q418 57 370 25T259 -7ZM308 567H261L362 770H440L308 567Z" />
<glyph unicode="&#xfb;" horiz-adv-x="569" d="M259 -7Q170 -7 125 42T80 187V501H141V190Q141 116 171 82T263 47Q337 47 381 93T425 217V501H486V0H427V111L438 120Q418 57 370 25T259 -7ZM208 567H145L261 770H308L424 567H361L285 719L208 567Z" />
<glyph unicode="&#xfc;" horiz-adv-x="569" d="M259 -7Q170 -7 125 42T80 187V501H141V190Q141 116 171 82T263 47Q337 47 381 93T425 217V501H486V0H427V111L438 120Q418 57 370 25T259 -7ZM331 705H406V632H331V705ZM163 705H238V632H163V705Z" />
<glyph unicode="&#xfd;" horiz-adv-x="525" d="M53 -227L41 -179Q87 -168 119 -153T172 -114T211 -50L241 21L253 36L447 501H508L273 -52Q247 -110 215 -145T142 -199T53 -227ZM241 -23L18 501H83L275 36L241 -23ZM286 567H239L340 770H418L286 567Z" />
<glyph unicode="&#xfe;" horiz-adv-x="591" d="M83 -216V736H144V369L133 377Q150 443 198 478T317 513Q382 513 432 482T511 392T541 251Q541 169 512 111T432 23T317 -7Q247 -7 199 28T133 130L144 138V-216H83ZM310 47Q390 47 433 101T476 251Q476 347 434
403T310 459Q230 459 187 406T144 253Q144 155 187 101T310 47Z" />
<glyph unicode="&#xff;" horiz-adv-x="525" d="M53 -227L41 -179Q87 -168 119 -153T172 -114T211 -50L241 21L253 36L447 501H508L273 -52Q247 -110 215 -145T142 -199T53 -227ZM241 -23L18 501H83L275 36L241 -23ZM309 705H384V632H309V705ZM141 705H216V632H141V705Z" />
<glyph unicode="&#x2013;" horiz-adv-x="505" d="M0 247V290H505V247H0Z" />
<glyph unicode="&#x2014;" horiz-adv-x="1010" d="M0 247V290H1010V247H0Z" />
<glyph unicode="&#x2018;" horiz-adv-x="222" d="M120 717L153 693Q128 666 121 644T113 599L92 611H154V524H69V587Q69 624 80 656T120 717Z" />
<glyph unicode="&#x2019;" horiz-adv-x="222" d="M101 518L70 543Q94 570 101 592T108 636L129 625H69V712H154V648Q154 612 143 581T101 518Z" />
<glyph unicode="&#x201a;" horiz-adv-x="222" d="M101 -107L70 -82Q94 -55 101 -34T108 11L129 0H69V87H154V22Q154 -13 143 -45T101 -107Z" />
<glyph unicode="&#x201c;" horiz-adv-x="378" d="M120 717L153 693Q128 666 121 644T113 599L92 611H154V524H69V587Q69 624 80 656T120 717ZM276 717L309 693Q284 666 277 644T269 599L248 611H310V524H225V587Q225 624 236 656T276 717Z" />
<glyph unicode="&#x201d;" horiz-adv-x="378" d="M101 518L70 543Q94 570 101 592T108 636L129 625H69V712H154V648Q154 612 143 581T101 518ZM257 518L226 543Q250 570 257 592T264 636L285 625H225V712H310V648Q310 612 299 581T257 518Z" />
<glyph unicode="&#x201e;" horiz-adv-x="378" d="M101 -107L70 -82Q94 -55 101 -34T108 11L129 0H69V87H154V22Q154 -13 143 -45T101 -107ZM257 -107L226 -82Q250 -55 257 -34T264 11L285 0H225V87H310V22Q310 -13 299 -45T257 -107Z" />
<glyph unicode="&#x2022;" horiz-adv-x="529" d="M265 89Q216 89 174 112T107 177T82 268Q82 314 105 355T170 421T265 447Q314 447 355 424T421 360T447 268Q447 219 423 178T357 113T265 89Z" />
<glyph unicode="&#x2039;" horiz-adv-x="250" d="M159 89L28 267L161 447H221L93 268L218 89H159Z" />
<glyph unicode="&#x203a;" horiz-adv-x="250" d="M91 89H32L158 268L29 447H90L222 267L91 89Z" />
</font>
</defs>
</svg>
